»
»

Скачать сериал Шифр / Шифровальщицы (1-16 серии из 16) (Вера Сторожева) [2018, детектив, история, WEBRip 720p] - торрент

Скачать торрент сериал можно, нажав на синюю кнопку ниже. Сериал доступен на нашем торрент-трекере бесплатно, без регистрации и смс.

Статистика раздачи
56 [ 1.4 MB/s ] ↑ 18.3 GB ↓ 4 [ 1.1 MB/s ]
Автор Сообщение
BLIZNEC W
2019-03-12 09:32
Шифр / Шифровальщицы (1-16 серии из 16)
Шифр / Шифровальщицы Перевод: Не требуется, cубтитры: отсутствуют
Формат: WEBRip 720p, MKV, H.264, AC3
Страна: Россия
Режиссер: Вера Сторожева
Жанр: детектив, история
Всего серий: 16
Продолжительность: 16 x ~ 00:48:00
Год выпуска: 2018

В ролях: Марьяна Спивак, Екатерина Вилкова, Елена Панова, Яна Дюбуи, Сергей Пускепалис, Олег Гаас, Николай Токарев, Светлана Колпакова, Михаил Евланов, Дмитрий Мазуров, Сергей Колесников (II), Алексей Колган, Виктор Добронравов, Екатерина Вуличенко, Максим Битюков, Ксения Попович, Александра Урсуляк, Александр Арсентьев, Софья Хилькова, Максим Стоянов, Дарья Мингазетдинова, Евгений Волоцкий, Александр Афанасьев (V), Егор Баринов, Артём Борисенко, Виктория Верберг, Владимир Воробьёв (II), Олег Голосов, Александр Гох, Павел Григорьев, Галина Гусева, Нина Дворжецкая, Максим Драченин, Екатерина Ильина, Анна Капалева, Николай Качура, Светлана Кленина, Янина Когут, Виктор Конухин, Виталия Корниенко, Елена Котельникова, Елена Кочеткова, Юлия Мандрико, Сергей Медведев (III), Светлана Селезнёва, Анастасия Смоктуновская, Сергей Фролов (III), Станислав Хатюхин, Ирина Чериченко, Пётр Черняев, Артур Чиргадзе, Алексей Шемес, Сергей Шеховцов, Руслан Щедрин, Рустэм Юскаев, Альбина Юсупова, Елена Муравьёва, Ирина Бякова, Сергей Попов, Сергей Савлук, Сергей Погосян, Любовь Руднева, Станислав Рядинский

Описание: Действие разворачивается в Москве 1956 года и рассказывает историю четырёх женщин, которых связывает военное прошлое: работа в спецотделе ГРУ. Они сходятся вновь, чтобы вести расследования и помогать следственным органам в особо запутанных делах. Обладая феноменальными аналитическими способностями, Ирина, Анна, Софья и Катерина, рискуя собой, а также благополучием собственных семей, ловят преступников, которые угрожают жизни простых людей и всей стране в целом.

Рейтинг и доп. информация:


Видео: 1280x720, (16:9), 25 fps, AVC MPEG-4 (x264), High@L4.1 ~ 3200 kbps , 0.139 bit/pixel
Аудио: 48 kHz, АС3, 2/0 (L,R), ~192.00 kbps avg
MediaInfo
Общее
Уникальный идентификатор : 236494508067025478939786402875396463364 (0xB1EB2F7B6AB514A28A5A79B4C1E61B04)
Полное имя : C:\Шифр (2019). WEB-DL 720p. Files-x\01. Шифр (2019). WEB-DL 720p. Files-x.mkv
Формат : Matroska
Версия формата : Version 2
Размер файла : 1,13 Гбайт
Продолжительность : 48 м. 49 с.
Режим общего битрейта : Постоянный
Общий поток : 3309 Кбит/сек
Дата кодирования : UTC 2019-03-11 19:45:40
Программа кодирования : mkvmerge v7.8.0 ('River Man') 32bit built on Apr 3 2015 12:11:22
Библиотека кодирования : libebml v1.3.1 + libmatroska v1.4.2

Видео
Идентификатор : 1
Формат : AVC
Формат/Информация : Advanced Video Codec
Профиль формата : High@L4.1
Настройки формата : CABAC / 4 Ref Frames
Параметр CABAC формата : Да
Параметр RefFrames формата : 4 кадра
Идентификатор кодека : V_MPEG4/ISO/AVC
Продолжительность : 48 м. 49 с.
Вид битрейта : Постоянный
Битрейт : 3200 Кбит/сек / 3200 Кбит/сек
Ширина : 1280 пикселей
Высота : 720 пикселей
Соотношение сторон : 16:9
Режим частоты кадров : Постоянный
Частота кадров : 25,000 кадров/сек
Цветовое пространство : YUV
Субдискретизация насыщенности : 4:2:0
Битовая глубина : 8 бит
Тип развёртки : Прогрессивная
Бит/(Пиксели*Кадры) : 0.139
Размер потока : 1,04 Гбайт (92%)
Библиотека кодирования : x264 core 148
Настройки программы : cabac=1 / ref=2 / deblock=1:0:0 / analyse=0x3:0x113 / me=hex / subme=6 / psy=1 / psy_rd=1.00:0.00 / mixed_ref=1 / me_range=16 / chroma_me=1 / trellis=1 / 8x8dct=1 / cqm=0 / deadzone=21,11 / fast_pskip=1 / chroma_qp_offset=-2 / threads=1 / lookahead_threads=1 / sliced_threads=0 / nr=0 / decimate=1 / interlaced=0 / bluray_compat=0 / constrained_intra=0 / bframes=3 / b_pyramid=2 / b_adapt=1 / b_bias=0 / direct=1 / weightb=1 / open_gop=0 / weightp=1 / keyint=250 / keyint_min=25 / scenecut=0 / intra_refresh=0 / rc_lookahead=30 / rc=cbr / mbtree=1 / bitrate=3200 / ratetol=1.0 / qcomp=0.60 / qpmin=0 / qpmax=69 / qpstep=4 / vbv_maxrate=3200 / vbv_bufsize=1600 / nal_hrd=cbr / filler=1 / ip_ratio=1.40 / aq=1:1.00
Default : Да
Forced : Нет

Аудио
Идентификатор : 2
Формат : AC-3
Формат/Информация : Audio Coding 3
Коммерческое название : Dolby Digital
Идентификатор кодека : A_AC3
Продолжительность : 48 м. 49 с.
Вид битрейта : Постоянный
Битрейт : 192 Кбит/сек
Каналы : 2 канала
Channel layout : L R
Частота : 48,0 КГц
Частота кадров : 31,250 кадров/сек (1536 SPF)
Битовая глубина : 16 бит
Метод сжатия : С потерями
Задержка видео : -61 мс.
Размер потока : 67,0 Мбайт (6%)
ServiceKind/String : Complete Main
Default : Да
Forced : Нет

Информация о торренте:
Размер содержимого: 18.3 GB
Скачан: 298 раз
Статус: Проверен
Зарегистрирован на трекере: 2019-03-23 00:15
Скачать торрент


Поддержи раздачу — поставь лайк:
BLIZNEC W
2019-03-12 08:33
Интересного и приятного просмотра!!!

Мои раздачи
Писать комментарии на нашем торрент-трекере могут только зарегистрированные пользователи.
Зарегистрируйтесь или авторизируйтесь на сайте.