»
»

Скачать фильм Весна (Григорий Александров) / [1947, мюзикл, мелодрама, комедия, фантастика, SATRip-AVC] - торрент

Скачать через торрент фильм вы можете, нажав на синюю кнопку. Фильм доступен на нашем торрент-трекере бесплатно, без регистрации и смс.

Статистика раздачи
37 [ 0 b/s ] ↑ 1.9 GB ↓ 0 [ 0 b/s ]
Автор Сообщение
BLIZNEC W
2019-03-10 10:18
Весна
Весна Формат: SATRip-AVC, MKV, H.264, AC3
Режиссер: Григорий Александров
Жанр: мюзикл, мелодрама, комедия, фантастика
Продолжительность: 01:41:56
Год выпуска: 1947

В ролях: Любовь Орлова, Николай Черкасов, Николай Коновалов, Михаил Сидоркин, Василий Зайчиков, Ростислав Плятт, Фаина Раневская, Рина Зелёная, Борис Петкер, Татьяна Гурецкая

Описание: Профессор Никитина работает над проблемой использования солнечной энергии. Кинорежиссер Громов, задумав снять о ней фильм, поручает главную роль опереточной актрисе Шатровой, поразительно похожей на Никитину. Развитие истории идет таким образом, что обе женщины на самом деле меняются ролями...
*Вот уже полвека поколение за поколением зрители с удовольствием смотрят этот фильм, в котором с блеском соединились элементы комедии масок и комедии положений, многочисленные режиссерские и актерские находки, талантливая музыка. За оригинальность сюжета картине была присуждена премия VII Венецианского кинофестиваля (1947).


Рейтинг и доп. информация:


Видео: 720x556@768x556, (1,381:1), 25 fps, AVC MPEG-4 (x264), High@L4.1 ~ 2400 kbps , 0.240 bit/pixel
Аудио: 48 kHz, АС3, 2/0 (L,R), ~256.00 kbps avg
MediaInfo
Общее
Уникальный идентификатор : 210172693841754607688247843392477223392 (0x9E1DC9D844968613B4151C2EECA859E0)
Полное имя : R:МОИ РИПЫВесна_1947-SATRip-AVC.mkv
Формат : Matroska
Версия формата : Version 2
Размер файла : 1,89 Гбайт
Продолжительность : 1 ч. 41 м.
Общий поток : 2658 Кбит/сек
Дата кодирования : UTC 2016-08-27 16:48:07
Программа кодирования : mkvmerge v5.8.0 ('No Sleep / Pillow') built on Sep 2 2012 15:37:04
Библиотека кодирования : libebml v1.2.3 + libmatroska v1.3.0

Видео
Идентификатор : 1
Формат : AVC
Формат/Информация : Advanced Video Codec
Профиль формата : High@L4.1
Параметр CABAC формата : Да
Параметр ReFrames формата : 15 кадров
Идентификатор кодека : V_MPEG4/ISO/AVC
Продолжительность : 1 ч. 41 м.
Битрейт : 2400 Кбит/сек
Ширина : 720 пикселей
Высота : 556 пикселей
Соотношение сторон : 1,381
Режим частоты кадров : Постоянный
Частота кадров : 25,000 кадров/сек
Цветовое пространство : YUV
Субдискретизация насыщенности : 4:2:0
Битовая глубина : 8 бит
Тип развёртки : Прогрессивная
Бит/(Пиксели*Кадры) : 0.240
Размер потока : 1,67 Гбайт (88%)
Заголовок : by filbi1976
Библиотека кодирования : x264 core 148 r2638 7599210
Настройки программы : cabac=1 / ref=15 / deblock=1:-2:-2 / analyse=0x3:0x133 / me=umh / subme=10 / psy=1 / psy_rd=1.05:0.12 / mixed_ref=1 / me_range=32 / chroma_me=1 / trellis=2 / 8x8dct=1 / cqm=0 / deadzone=21,11 / fast_pskip=0 / chroma_qp_offset=-3 / threads=12 / lookahead_threads=2 / sliced_threads=0 / nr=0 / decimate=0 / interlaced=0 / bluray_compat=0 / constrained_intra=0 / bframes=9 / b_pyramid=2 / b_adapt=2 / b_bias=0 / direct=3 / weightb=1 / open_gop=0 / weightp=2 / keyint=250 / keyint_min=25 / scenecut=40 / intra_refresh=0 / rc_lookahead=40 / rc=2pass / mbtree=0 / bitrate=2400 / ratetol=1.0 / qcomp=0.63 / qpmin=0 / qpmax=39 / qpstep=4 / cplxblur=20.0 / qblur=0.5 / vbv_maxrate=50000 / vbv_bufsize=62500 / nal_hrd=none / filler=0 / ip_ratio=1.40 / pb_ratio=1.30 / aq=2:0.90
Язык : English
Default : Да
Forced : Нет
Основные цвета : BT.601 PAL
Характеристики трансфера : BT.470 System B, BT.470 System G
Коэффициенты матрицы : BT.601

Аудио
Идентификатор : 2
Формат : AC-3
Формат/Информация : Audio Coding 3
Расширение режима : CM (complete main)
Параметр Endianness формата : Big
Идентификатор кодека : A_AC3
Продолжительность : 1 ч. 41 м.
Вид битрейта : Постоянный
Битрейт : 256 Кбит/сек
Каналы : 2 канала
Расположение каналов : Front: L R
Частота : 48,0 КГц
Битовая глубина : 16 бит
Метод сжатия : С потерями
Задержка видео : 1 мс.
Размер потока : 187 Мбайт (10%)
Язык : Russian
Default : Да
Forced : Нет

Информация о торренте:
Размер содержимого: 1.9 GB
Скачан: 148 раз
Статус: Проверен
Зарегистрирован на трекере: 2019-03-10 09:18
Скачать торрент


Поддержи раздачу — поставь лайк:
BLIZNEC W
2019-03-10 09:18
Интересного и приятного просмотра!!!

Мои раздачи
Писать комментарии на нашем торрент-трекере могут только зарегистрированные пользователи.
Зарегистрируйтесь или авторизируйтесь на сайте.