»
»

Скачать фильм Дженго Хупер / Jengo Hooper (Джо Вилер / Joe Wheeler ) [2013, ужасы, боевик, триллер , LowWEBRip-AVC] VO - торрент

Скачать фильм через торрент бесплатно. Фильм доступен на нашем торрент-трекере бесплатно, без регистрации и смс.

Статистика раздачи
8 [ 0 b/s ] ↑ 731.3 MB ↓ 0 [ 0 b/s ]
Автор Сообщение
ERNIE2010
2019-03-09 17:40
Дженго Хупер / Jengo Hooper
Дженго Хупер  / Jengo Hooper
Перевод: Любительский (одноголосый) datynet; перевод: Куценко, субтитры: отсутствуют
Формат: LowWEBRip-AVC, MKV, H.264, MP3
Страна: США, Великобритания
Режиссер: Джо Вилер / Joe Wheeler
Жанр: ужасы, боевик, триллер
Продолжительность: 01:19:06
Год выпуска: 2013
В ролях: Алан Баптисте, Дастин Ли Берджесс, Бен Чепмен, Шари Черри, Mяу Дэвис, Кай Дестини, Лэс Хитт, Тимоти Хоффман, Милли Инилла, Роза Джеффри, Джек Кендалл, Стейси Лейси, Ализе Леви, Терри Ноубл, Ребекка Олейничак, Нарин Оз, Ричард Перси, Марк Филлипс, Нетти Прентис, Нил Рид, Рокко, Майкл Роулингс, Анна Ричардсон, Дэйв Родригес, Роб Сигстон, Адам Смит, Джессика Велле, Г.С. Уэйд II, Джейсон Райт, Пенни Джудд

Описание: Некий Джейк Уивер наткнулся на старую доску Джайлакунга, с которой он решил побаловаться, не зная, что она откроет ему врата ада. Демоническая сила вцепилась в него, медленно захватив его разум, заставляя добрую часть его качеств гнить. А это, своего рода, одержимость демонами. Вот только этот демон называет себя Дженго Хупер. И Джейк испытывает на себе все негативные последствия, страдает от ужасных злобных кошмаров, жутких и мрачных обрядов, медленно доводя себя до крайности и превращаясь в настоящего психо-каннибала-убийцу. Убивая своих жертв, Джейк совершает странные акты безудержного веселья над покойниками, а если и этого казалось мало, то он снимает их на кинопленку и делает фотографии в разных ракурсах. Через какое-то время он понимает, что не может так продолжаться, и пытается покончить жизнь самоубийством, и с того момента он попадает в психиатрическую тюрьму Бродмур в соответствии с "Актом о душевном здоровье", хотя врачи и медицинский персонал считают, что он просто страдает от тяжелой формы шизофрении. Этот фильм - история, рассказанная его глазами в его привычном понимании...

[imdb=https://www.imdb.com/title/tt2443356/]

Видео: 720x306 (2.35:1), 23.976fps, MPEG4 Video (H264) High@L3.1 ~1 100 kbps avg, 0.208 bit/pixel
Аудио: 48 kHz, MPEG Layer 3, 2 ch, ~192 kbps avg
Доп. информация:

MI
General
Unique ID : 180426625249180958474519852250126583385 (0x87BCE76EB87D1324879C771626638659)
Complete name : Jengo.Hooper.2013.WEBRip.mkv
Format : Matroska
Format version : Version 4 / Version 2
File size : 731 MiB
Duration : 1 h 19 min
Overall bit rate : 1 293 kb/s
Encoded date : UTC 2019-03-04 10:22:04
Writing application : mkvmerge v9.6.0 ('Slave To Your Mind') 64bit
Writing library : libebml v1.3.4 + libmatroska v1.4.5

Video
ID : 1
Format : AVC
Format/Info : Advanced Video Codec
Format profile : High@L3.1
Format settings, CABAC : Yes
Format settings, RefFrames : 5 frames
Codec ID : V_MPEG4/ISO/AVC
Duration : 1 h 19 min
Bit rate : 1 100 kb/s
Width : 720 pixels
Height : 306 pixels
Display aspect ratio : 2.35:1
Frame rate mode : Constant
Frame rate : 23.976 (24000/1001) FPS
Color space : YUV
Chroma subsampling : 4:2:0
Bit depth : 8 bits
Scan type : Progressive
Bits/(Pixel*Frame) : 0.208
Stream size : 622 MiB (85%)
Writing library : x264 core 152 r2851M ba24899
Encoding settings : cabac=1 / ref=5 / deblock=1:-1:-1 / analyse=0x3:0x113 / me=umh / subme=9 / psy=1 / psy_rd=1.00:0.15 / mixed_ref=1 / me_range=16 / chroma_me=1 / trellis=2 / 8x8dct=1 / cqm=0 / deadzone=21,11 / fast_pskip=1 / chroma_qp_offset=-3 / threads=10 / lookahead_threads=1 / sliced_threads=0 / nr=0 / decimate=1 / interlaced=0 / bluray_compat=0 / constrained_intra=0 / bframes=3 / b_pyramid=2 / b_adapt=2 / b_bias=0 / direct=3 / weightb=1 / open_gop=0 / weightp=2 / keyint=250 / keyint_min=23 / scenecut=40 / intra_refresh=0 / rc_lookahead=50 / rc=abr / mbtree=1 / bitrate=1100 / ratetol=1.0 / qcomp=0.60 / qpmin=0 / qpmax=69 / qpstep=4 / ip_ratio=1.40 / aq=1:1.00
Language : English
Default : Yes
Forced : No

Audio
ID : 2
Format : MPEG Audio
Format version : Version 1
Format profile : Layer 3
Codec ID : A_MPEG/L3
Codec ID/Hint : MP3
Duration : 1 h 19 min
Bit rate mode : Constant
Bit rate : 192 kb/s
Channel(s) : 2 channels
Sampling rate : 44.1 kHz
Frame rate : 38.281 FPS (1152 SPF)
Compression mode : Lossy
Stream size : 109 MiB (15%)
Default : Yes
Forced : No




Информация о торренте:
Размер содержимого: 731.3 MB
Скачан: 209 раз
Статус: Проверен
Зарегистрирован на трекере: 2019-03-09 16:40
Скачать торрент


Поддержи раздачу — поставь лайк:
Брякус
2019-03-10 21:01
Leax написал(а):
Какая-то мозговыворачивающая херня

Наверное, это случайно из раздела "Артхаус" сбежало :?
wew1324
2019-03-11 19:15
Архивное издание закрытой психиатрической клиники :gygy:
Писать комментарии на нашем торрент-трекере могут только зарегистрированные пользователи.
Зарегистрируйтесь или авторизируйтесь на сайте.