»
»

Скачать фильм Последнее дело комиссара Берлаха (1-2 серии из 2) (Василий Левин) / [1972, детектив, драма, криминал, экранизация, SATRip-AVC] - торрент

Бесплатные торренты всегда на нашем сайте и в хорошем качестве! Фильм доступен на нашем торрент-трекере бесплатно, без регистрации и смс.

Статистика раздачи
50 [ 0 b/s ] ↑ 1.6 GB ↓ 0 [ 0 b/s ]
Автор Сообщение
BLIZNEC W
2019-03-09 12:14
Последнее дело комиссара Берлаха (1-2 серии из 2)
Последнее дело комиссара Берлаха Формат: SATRip-AVC, MKV, H.264, AC3
Режиссер: Василий Левин
Жанр: детектив, драма, криминал, экранизация
Продолжительность: 01:02:43 + 01:02:57
Год выпуска: 1972

В ролях: Николай Симонов, Андрей Попов, Николай Волков (старший), Светлана Коркошко, Николай Гринько, Иева Мурниеце, Людмила Войнова-Крутикова, Артурс Димитерс, Волдемар Акуратерс, Александр Бениаминов, Улдис Ваздикс, Игорь Варпа, Лидия Пупуре, Б. Кажмерс, Зигурс Звиедрис, Э. Макова, Вольдемарс Дудиньш, Раиса Лунёва, Паул Буткевич, А. Юнкепс, Арис Розенталс

Описание: По мотивам повести Фридриха Дюренматта "Подозрение". Комисар полиции Берлах (Николай Симонов) в послевоенной Швейцарии разыскивает скрывающихся нацистских преступников. Узнав, что под вымышленным именем одной из клиник руководит бывший врач-нацист, тяжело больной Берлах определяется туда на лечение...

Рейтинг и доп. информация:


Видео: 540x574@768x574, (4:3), 25 fps, AVC MPEG-4 (x264), High@L4.1 ~ 1500 kbps , 0.195 bit/pixel
Аудио: 48 kHz, АС3, 2/0 (L,R), ~256.00 kbps avg
MediaInfo
x264 [info]: frame I:482 Avg QP:17.49 size: 45402
x264 [info]: frame P:21165 Avg QP:19.16 size: 20033
x264 [info]: frame B:72447 Avg QP:20.97 size: 3905[/list]Общее
Уникальный идентификатор : 173240146433193907999256362109383800956 (0x8254D6ABC6498C9F91A3580C30CCF87C)
Полное имя : D:Последнее дело комиссара Берлаха_1971-SATRip-AVC_KORSARПоследнее дело комиссара Берлаха-1.mkv
Формат : Matroska
Версия формата : Version 2
Размер файла : 811 Мбайт
Продолжительность : 1 ч. 2 м.
Общий поток : 1807 Кбит/сек
Дата кодирования : UTC 2018-06-12 12:54:10
Программа кодирования : mkvmerge v5.8.0 ('No Sleep / Pillow') built on Sep 2 2012 15:37:04
Библиотека кодирования : libebml v1.2.3 + libmatroska v1.3.0

Видео
Идентификатор : 1
Формат : AVC
Формат/Информация : Advanced Video Codec
Профиль формата : High@L4.1
Параметр CABAC формата : Да
Параметр RefFrames формата : 14 кадров
Идентификатор кодека : V_MPEG4/ISO/AVC
Продолжительность : 1 ч. 2 м.
Битрейт : 1515 Кбит/сек
Ширина : 540 пикселей
Высота : 574 пикселя
Соотношение сторон : 4:3
Режим частоты кадров : Постоянный
Частота кадров : 25,000 кадров/сек
Цветовое пространство : YUV
Субдискретизация насыщенности : 4:2:0
Битовая глубина : 8 бит
Тип развёртки : Прогрессивная
Бит/(Пиксели*Кадры) : 0.195
Размер потока : 680 Мбайт (84%)
Библиотека кодирования : x264 core 152 r2851kMod ba24899
Настройки программы : cabac=1 / ref=14 / deblock=1:-2:-1 / analyse=0x3:0x133 / me=umh / subme=10 / psy=1 / fade_compensate=0.00 / psy_rd=1.05:0.10 / mixed_ref=1 / me_range=32 / chroma_me=1 / trellis=2 / 8x8dct=1 / cqm=0 / deadzone=21,11 / fast_pskip=1 / chroma_qp_offset=-3 / threads=12 / lookahead_threads=3 / sliced_threads=0 / nr=0 / decimate=1 / interlaced=0 / bluray_compat=0 / constrained_intra=0 / bframes=11 / b_pyramid=2 / b_adapt=2 / b_bias=0 / direct=1 / weightb=1 / open_gop=0 / weightp=2 / keyint=250 / keyint_min=25 / scenecut=40 / intra_refresh=0 / rc=crf / mbtree=0 / crf=18.0000 / qcomp=0.63 / qpmin=0 / qpmax=39 / qpstep=4 / ip_ratio=1.40 / pb_ratio=1.30 / aq=1:0.90
Язык : English
Default : Да
Forced : Нет
Цветовой диапазон : Limited
Основные цвета : BT.601 PAL
Характеристики трансфера : BT.470 System B, BT.470 System G
Коэффициенты матрицы : BT.601

Аудио
Идентификатор : 2
Формат : AC-3
Формат/Информация : Audio Coding 3
Параметр Endianness формата : Big
Идентификатор кодека : A_AC3
Продолжительность : 1 ч. 2 м.
Вид битрейта : Постоянный
Битрейт : 256 Кбит/сек
Каналы : 2 канала
Расположение каналов : Front: L R
Частота : 48,0 КГц
Частота кадров : 31,250 кадров/сек (1536 SPF)
Битовая глубина : 16 бит
Метод сжатия : С потерями
Размер потока : 115 Мбайт (14%)
Язык : Russian
Default : Да
Forced : Нет

Информация о торренте:
Размер содержимого: 1.6 GB
Скачан: 141 раз
Статус: Проверен
Зарегистрирован на трекере: 2019-03-09 11:14
Скачать торрент


Поддержи раздачу — поставь лайк:
BLIZNEC W
2019-03-09 11:15
Интересного и приятного просмотра!!!

Мои раздачи
Писать комментарии на нашем торрент-трекере могут только зарегистрированные пользователи.
Зарегистрируйтесь или авторизируйтесь на сайте.