»
»

Скачать фильм Отставной козы барабанщик (Георгий Мыльников) / [1981, драма, комедия, DVDRip-AVC] - торрент

Скачать через торрент фильм вы можете, нажав на синюю кнопку. Фильм доступен на нашем торрент-трекере бесплатно, без регистрации и смс.

Статистика раздачи
145 [ 55.0 KB/s ] ↑ 1.5 GB ↓ 0 [ 0 b/s ]
Автор Сообщение
BLIZNEC W
2019-03-08 21:09
Отставной козы барабанщик
Отставной козы барабанщик Формат: DVDRip-AVC, MKV, H.264, AC3
Режиссер: Георгий Мыльников
Жанр: драма, комедия
Продолжительность: 01:10:51
Год выпуска: 1981

В ролях: Георгий Бурков, Татьяна Пельтцер, Галина Польских, Нелли Волшанинова, Пётр Вельяминов, Иван Рыжов, Евгений Шутов, Муза Крепкогорская, Борис Токарев (II), Оксана Горошкевич, Андрей Комаров, Сергей Тегин

Описание: «Отставной козы барабанщик» – так в сердцах назвала жена главного героя фильма. Кто он? Сейчас работает сантехником, а до того перепробовал с десяток профессий, но так и не нашел своего места в жизни, а ведь ему уже под пятьдесят. И вот, после очередной ссоры с женой горожанин Гаврюшка Чупрун решил начать "новую" жизнь. Взяв у соседа форму и выдав себя за капитана дальнего плавания, уехал в село, где родился и вырос. Но очень скоро истина стала для всех очевидной - и приехавшей жене пришлось спасать Гаврилу от позора...

Рейтинг и доп. информация:


Видео: 696x346@754x346, (2,2:1), 25 fps, AVC MPEG-4 (x264), High@L4.1 ~ 2694 kbps , 0.447 bit/pixel
Аудио: 48 kHz, АС3, 2/0 (L,R), ~192.00 kbps avg
MediaInfo

x264 [info]: frame I:576 Avg QP:18.16 size: 59277
x264 [info]: frame P:24978 Avg QP:19.50 size: 32016
x264 [info]: frame B:80741 Avg QP:22.00 size: 7778
x264 [info]: consecutive B-frames: 3.0% 2.5% 8.1% 25.0% 21.5% 37.7% 1.9% 0.3% 0.1%
Общее
Уникальный идентификатор : 230783846228257164856479387748260409510 (0xAD9F5A1D894181D7A74BE4FB129C70A6)
Полное имя : D:Отставной козы барабанщик_1981-DVDRip-AVC_KORSAR.mkv
Формат : Matroska
Версия формата : Version 2
Размер файла : 1,46 Гбайт
Продолжительность : 1 ч. 10 м.
Общий поток : 2944 Кбит/сек
Название фильма : Отставной козы барабанщик_1981-DVDRip-AVC_KORSAR
Дата кодирования : UTC 2019-03-06 18:31:46
Программа кодирования : mkvmerge v5.8.0 ('No Sleep / Pillow') built on Sep 2 2012 15:37:04
Библиотека кодирования : libebml v1.2.3 + libmatroska v1.3.0

Видео
Идентификатор : 1
Формат : AVC
Формат/Информация : Advanced Video Codec
Профиль формата : High@L4.1
Параметр CABAC формата : Да
Параметр ReFrames формата : 14 кадров
Идентификатор кодека : V_MPEG4/ISO/AVC
Продолжительность : 1 ч. 10 м.
Битрейт : 2694 Кбит/сек
Ширина : 696 пикселей
Высота : 346 пикселей
Соотношение сторон : 2,2:1
Режим частоты кадров : Постоянный
Частота кадров : 25,000 кадров/сек
Цветовое пространство : YUV
Субдискретизация насыщенности : 4:2:0
Битовая глубина : 8 бит
Тип развёртки : Прогрессивная
Бит/(Пиксели*Кадры) : 0.447
Размер потока : 1,33 Гбайт (91%)
Библиотека кодирования : x264 core 152 r2851kMod ba24899
Настройки программы : cabac=1 / ref=14 / deblock=1:-2:-1 / analyse=0x3:0x133 / me=umh / subme=10 / psy=1 / fade_compensate=0.00 / psy_rd=1.05:0.10 / mixed_ref=1 / me_range=32 / chroma_me=1 / trellis=2 / 8x8dct=1 / cqm=0 / deadzone=21,11 / fast_pskip=1 / chroma_qp_offset=-3 / threads=11 / lookahead_threads=1 / sliced_threads=0 / nr=0 / decimate=1 / interlaced=0 / bluray_compat=0 / constrained_intra=0 / bframes=8 / b_pyramid=2 / b_adapt=2 / b_bias=0 / direct=1 / weightb=1 / open_gop=0 / weightp=2 / keyint=250 / keyint_min=25 / scenecut=40 / intra_refresh=0 / rc=crf / mbtree=0 / crf=16.5000 / qcomp=0.63 / qpmin=0 / qpmax=39 / qpstep=4 / ip_ratio=1.40 / pb_ratio=1.30 / aq=1:0.90
Язык : English
Default : Да
Forced : Нет
Основные цвета : BT.601 PAL
Характеристики трансфера : BT.470 System B, BT.470 System G
Коэффициенты матрицы : BT.601

Аудио
Идентификатор : 2
Формат : AC-3
Формат/Информация : Audio Coding 3
Расширение режима : CM (complete main)
Параметр Endianness формата : Big
Идентификатор кодека : A_AC3
Продолжительность : 1 ч. 10 м.
Вид битрейта : Постоянный
Битрейт : 192 Кбит/сек
Каналы : 2 канала
Расположение каналов : Front: L R
Частота : 48,0 КГц
Битовая глубина : 16 бит
Метод сжатия : С потерями
Размер потока : 97,3 Мбайт (7%)
Язык : Russian
Default : Да
Forced : Нет

Меню
00:00:00.000 : en:Chapter 1
00:07:58.160 : en:Chapter 2
00:19:39.360 : en:Chapter 3
00:26:54.080 : en:Chapter 4
00:35:13.840 : en:Chapter 5
00:41:43.520 : en:Chapter 6
00:47:39.760 : en:Chapter 7
00:56:45.640 : en:Chapter 8
01:03:43.560 : en:Chapter 9
01:08:12.560 : en:Chapter 10
01:10:50.360 : en:Chapter 11
01:10:51.760 : en:Chapter 12

Информация о торренте:
Размер содержимого: 1.5 GB
Скачан: 206 раз
Статус: Проверен
Зарегистрирован на трекере: 2019-03-08 20:09
Скачать торрент


Поддержи раздачу — поставь лайк:
BLIZNEC W
2019-03-08 20:09
Интересного и приятного просмотра!!!

Мои раздачи
Писать комментарии на нашем торрент-трекере могут только зарегистрированные пользователи.
Зарегистрируйтесь или авторизируйтесь на сайте.