»
»

Скачать фильм Каменный крест (Леонид Осыка) / [1968, притча, драма, экранизация, DVDRip-AVC] - торрент

Скачать торрент фильм можно, нажав на синюю кнопку ниже. Фильм доступен на нашем торрент-трекере бесплатно, без регистрации и смс.

Статистика раздачи
33 [ 0 b/s ] ↑ 1.2 GB ↓ 1 [ 0 b/s ]
Автор Сообщение
BLIZNEC W
2019-03-08 19:29
Каменный крест
Каменный крест Субтитры: русские
Формат: DVDRip-AVC, MKV, H.264, AC3
Режиссер: Леонид Осыка
Жанр: притча, драма, экранизация
Продолжительность: 01:16:36
Год выпуска: 1968

В ролях: Даниил Ильченко, Борислав Брондуков, Константин Степанков, Василий Симчич, Антонина Лефтий, Иван Миколайчук, Борис Савченко, К. Матейк, Олекса Атаманюк

Описание: По новеллам Василя Стефаника. Начало ХХ века. О трагической судьбе галицкого крестьянина, который вынужден на старости лет покинуть свою землю, и отправиться с детьми на чужбину.

Рейтинг и доп. информация:


Видео: 720x576@802x576, (1,392:1), 25 fps, AVC MPEG-4 (x264), High@L4.1 ~ 1766 kbps , 0.287 bit/pixel
Аудио #1: Русский: 48 kHz, АС3, 2/0 (L,R), ~224.00 kbps avg
Аудио #2: Украинский48 kHz, АС3, 2/0 (L,R), ~224.00 kbps avg
Предупреждение
В исходнике присутствует надпись о лицензии в одном из кадров.
MediaInfo
x264 [info]: frame I:535 Avg QP:16.20 size: 59102
x264 [info]: frame P:23380 Avg QP:18.15 size: 25000
x264 [info]: frame B:90988 Avg QP:19.57 size: 4651
x264 [info]: consecutive B-frames: 1.2% 3.1% 7.3% 9.0% 19.6% 46.5% 8.2% 1.9% 1.8% 0.9% 0.3% 0.2%
Общее
Уникальный идентификатор : 203757634543129878343876577978205715814 (0x994A4B00808E1FC09AB4D3B0699DBD66)
Полное имя : D:Каменный крест_1968-DVDRip-AVC_KORSAR.mkv
Формат : Matroska
Версия формата : Version 2
Размер файла : 1,21 Гбайт
Продолжительность : 1 ч. 16 м.
Общий поток : 2259 Кбит/сек
Название фильма : Каменный крест_1968-DVDRip-AVC_KORSAR
Дата кодирования : UTC 2019-03-04 11:41:05
Программа кодирования : mkvmerge v5.8.0 ('No Sleep / Pillow') built on Sep 2 2012 15:37:04
Библиотека кодирования : libebml v1.2.3 + libmatroska v1.3.0

Видео
Идентификатор : 1
Формат : AVC
Формат/Информация : Advanced Video Codec
Профиль формата : High@L4.1
Параметр CABAC формата : Да
Параметр ReFrames формата : 15 кадров
Идентификатор кодека : V_MPEG4/ISO/AVC
Битрейт : 1766 Кбит/сек
Ширина : 720 пикселей
Высота : 576 пикселей
Соотношение сторон : 1,392
Режим частоты кадров : Переменный
Частота кадров в оригинале : 25,000 кадров/сек
Стандарт вещания : PAL
Цветовое пространство : YUV
Субдискретизация насыщенности : 4:2:0
Битовая глубина : 8 бит
Тип развёртки : Прогрессивная
Библиотека кодирования : x264 core 152 r2851kMod ba24899
Настройки программы : cabac=1 / ref=15 / deblock=1:-2:-1 / analyse=0x3:0x133 / me=umh / subme=10 / psy=1 / fade_compensate=0.00 / psy_rd=1.05:0.10 / mixed_ref=1 / me_range=40 / chroma_me=1 / trellis=2 / 8x8dct=1 / cqm=0 / deadzone=21,11 / fast_pskip=1 / chroma_qp_offset=-3 / threads=12 / lookahead_threads=3 / sliced_threads=0 / nr=0 / decimate=1 / interlaced=0 / bluray_compat=0 / constrained_intra=0 / bframes=11 / b_pyramid=2 / b_adapt=2 / b_bias=0 / direct=1 / weightb=1 / open_gop=0 / weightp=2 / keyint=250 / keyint_min=25 / scenecut=40 / intra_refresh=0 / rc=crf / mbtree=0 / crf=18.3000 / qcomp=0.63 / qpmin=0 / qpmax=39 / qpstep=4 / ip_ratio=1.40 / pb_ratio=1.30 / aq=1:0.90
Язык : English
Default : Да
Forced : Нет
Основные цвета : BT.601 PAL
Характеристики трансфера : BT.470 System B, BT.470 System G
Коэффициенты матрицы : BT.601

Аудио #1
Идентификатор : 2
Формат : AC-3
Формат/Информация : Audio Coding 3
Расширение режима : CM (complete main)
Параметр Endianness формата : Big
Идентификатор кодека : A_AC3
Продолжительность : 1 ч. 16 м.
Вид битрейта : Постоянный
Битрейт : 224 Кбит/сек
Каналы : 2 канала
Расположение каналов : Front: L R
Частота : 48,0 КГц
Битовая глубина : 16 бит
Метод сжатия : С потерями
Размер потока : 123 Мбайт (10%)
Язык : Russian
Default : Да
Forced : Нет

Аудио #2
Идентификатор : 3
Формат : AC-3
Формат/Информация : Audio Coding 3
Расширение режима : CM (complete main)
Параметр Endianness формата : Big
Идентификатор кодека : A_AC3
Продолжительность : 1 ч. 16 м.
Вид битрейта : Постоянный
Битрейт : 224 Кбит/сек
Каналы : 2 канала
Расположение каналов : Front: L R
Частота : 48,0 КГц
Битовая глубина : 16 бит
Метод сжатия : С потерями
Размер потока : 123 Мбайт (10%)
Язык : Ukrainian
Default : Нет
Forced : Нет

Текст
Идентификатор : 4
Формат : UTF-8
Идентификатор кодека : S_TEXT/UTF8
Идентификатор кодека/Информация : UTF-8 Plain Text
Язык : Russian
Default : Нет
Forced : Нет

Меню
00:00:00.000 : en:Chapter 1
00:10:18.160 : en:Chapter 2
00:21:53.200 : en:Chapter 3
00:33:30.640 : en:Chapter 4
00:46:26.800 : en:Chapter 5
00:57:40.240 : en:Chapter 6
01:03:25.360 : en:Chapter 7
01:07:49.360 : en:Chapter 8
01:16:36.800 : en:Chapter 9

Информация о торренте:
Размер содержимого: 1.2 GB
Скачан: 177 раз
Статус: Проверен
Зарегистрирован на трекере: 2019-03-08 18:29
Скачать торрент


Поддержи раздачу — поставь лайк:
BLIZNEC W
2019-03-08 18:29
Интересного и приятного просмотра!!!

Мои раздачи
Писать комментарии на нашем торрент-трекере могут только зарегистрированные пользователи.
Зарегистрируйтесь или авторизируйтесь на сайте.