»
»

Скачать фильм Не сошлись характерами (Николай Александрович) / [1989, драма, комедия, SATRip-AVC] - торрент

Нажмите на синюю кнопку ниже, чтобы скачать фильм бесплатно через торрент. Фильм доступен на нашем торрент-трекере бесплатно, без регистрации и смс.

Статистика раздачи
39 [ 0 b/s ] ↑ 1.7 GB ↓ 0 [ 0 b/s ]
Автор Сообщение
BLIZNEC W
2019-03-08 18:37
Не сошлись характерами
Не сошлись характерами Формат: SATRip-AVC, MKV, H.264, AC3
Режиссер: Николай Александрович
Жанр: драма, комедия
Продолжительность: 01:16:52
Год выпуска: 1989

В ролях: Ирина Мирошниченко, Александр Лазарев (ст.), Ольга Машная, Филипп Изварин, Ольга Понизова, Тимур Макеев, Татьяна Канаева, Леонид Ярмольник, Нина Тер-Осипян, Майя Булгакова

Описание: Психолог Наталья Юрьевна по роду своей служебной деятельности разбирается в запутанных семейно-бытовых драмах своих клиентов, находя нужные слова и аргументы. Сохранять чужие семьи – ее работа. Однако, волею случая именно на долю Натальи Юрьевны выпадает пережить предательство, ревность и одиночество. От нее решил уйти муж, влюбившийся в молодую артистку цирка...

Рейтинг и доп. информация:


Видео: 716x574@763x574, (4:3), 25 fps, AVC MPEG-4 (x264), High@L4.1 ~ 2764 kbps , 0.269 bit/pixel
Аудио: 48 kHz, АС3, 2/0 (L,R), ~256.00 kbps avg
MediaInfo
x264 [info]: frame I:680 Avg QP:17.35 size: 78191
x264 [info]: frame P:25348 Avg QP:19.09 size: 37445
x264 [info]: frame B:89257 Avg QP:21.26 size: 7002
x264 [info]: consecutive B-frames: 1.2% 2.2% 11.0% 18.3% 27.8% 35.8% 2.9% 0.5% 0.2% 0.0% 0.0%
Общее
Уникальный идентификатор : 193959024783558058545443667074380337385 (0x91EB263DDD5B6E4F9006B7E0D11E10E9)
Полное имя : D:Не сошлись характерами_1989-SATRip-AVC_KORSAR.mkv
Формат : Matroska
Версия формата : Version 2
Размер файла : 1,65 Гбайт
Продолжительность : 1 ч. 16 м.
Общий поток : 3081 Кбит/сек
Название фильма : Не сошлись характерами_1989-SATRip-AVC_KORSAR
Дата кодирования : UTC 2019-02-17 08:37:21
Программа кодирования : mkvmerge v5.8.0 ('No Sleep / Pillow') built on Sep 2 2012 15:37:04
Библиотека кодирования : libebml v1.2.3 + libmatroska v1.3.0

Видео
Идентификатор : 1
Формат : AVC
Формат/Информация : Advanced Video Codec
Профиль формата : High@L4.1
Параметр CABAC формата : Да
Параметр ReFrames формата : 14 кадров
Идентификатор кодека : V_MPEG4/ISO/AVC
Продолжительность : 1 ч. 16 м.
Битрейт : 2764 Кбит/сек
Ширина : 716 пикселей
Высота : 574 пикселя
Соотношение сторон : 4:3
Соотношение сторон в оригинале : 4:3
Режим частоты кадров : Постоянный
Частота кадров : 25,000 кадров/сек
Цветовое пространство : YUV
Субдискретизация насыщенности : 4:2:0
Битовая глубина : 8 бит
Тип развёртки : Прогрессивная
Бит/(Пиксели*Кадры) : 0.269
Размер потока : 1,48 Гбайт (90%)
Библиотека кодирования : x264 core 152 r2851kMod ba24899
Настройки программы : cabac=1 / ref=14 / deblock=1:-2:-1 / analyse=0x3:0x133 / me=umh / subme=10 / psy=1 / fade_compensate=0.00 / psy_rd=1.05:0.10 / mixed_ref=1 / me_range=32 / chroma_me=1 / trellis=2 / 8x8dct=1 / cqm=0 / deadzone=21,11 / fast_pskip=1 / chroma_qp_offset=-3 / threads=12 / lookahead_threads=3 / sliced_threads=0 / nr=0 / decimate=1 / interlaced=0 / bluray_compat=0 / constrained_intra=0 / bframes=10 / b_pyramid=2 / b_adapt=2 / b_bias=0 / direct=1 / weightb=1 / open_gop=0 / weightp=2 / keyint=250 / keyint_min=25 / scenecut=40 / intra_refresh=0 / rc=crf / mbtree=0 / crf=17.7000 / qcomp=0.63 / qpmin=0 / qpmax=39 / qpstep=4 / ip_ratio=1.40 / pb_ratio=1.30 / aq=1:0.80
Язык : English
Default : Да
Forced : Нет
Основные цвета : BT.601 PAL
Характеристики трансфера : BT.470 System B, BT.470 System G
Коэффициенты матрицы : BT.601

Аудио
Идентификатор : 2
Формат : AC-3
Формат/Информация : Audio Coding 3
Расширение режима : CM (complete main)
Параметр Endianness формата : Big
Идентификатор кодека : A_AC3
Продолжительность : 1 ч. 16 м.
Вид битрейта : Постоянный
Битрейт : 256 Кбит/сек
Каналы : 2 канала
Расположение каналов : Front: L R
Частота : 48,0 КГц
Битовая глубина : 16 бит
Метод сжатия : С потерями
Задержка видео : 16 мс.
Размер потока : 141 Мбайт (8%)
Язык : Russian
Default : Да
Forced : Нет

Информация о торренте:
Размер содержимого: 1.7 GB
Скачан: 142 раза
Статус: Проверен
Зарегистрирован на трекере: 2019-03-08 17:37
Скачать торрент


Поддержи раздачу — поставь лайк:
BLIZNEC W
2019-03-08 17:37
Интересного и приятного просмотра!!!

Мои раздачи
Писать комментарии на нашем торрент-трекере могут только зарегистрированные пользователи.
Зарегистрируйтесь или авторизируйтесь на сайте.