»
»

Скачать сериал Мылодрама (Без цензуры) (1-9 серии из 9) (Илья Куликов) / [2019, комедия, WEBRip 720p] - торрент

Нажмите на синюю кнопку ниже, чтобы скачать сериал бесплатно через торрент. Сериал доступен на нашем торрент-трекере бесплатно, без регистрации и смс.

Статистика раздачи
367 [ 7.8 MB/s ] ↑ 7.5 GB ↓ 14 [ 2.5 MB/s ]
Автор Сообщение
BLIZNEC W
2019-03-08 17:46
Мылодрама (Без цензуры) (1-9 серии из 9)
Мылодрама Перевод: Не требуется, cубтитры: отсутствуют
Формат: WEBRip 720p, MKV, H.264, MP3
Страна: Россия
Режиссер: Илья Куликов
Жанр: комедия
Всего серий: 9
Продолжительность: 9 x ~ 00:26:00
Год выпуска: 2019

В ролях: Сергей Бурунов, Григорий Калинин, Маруся Климова, Юрий Грубник, Ростислав Бершауэр, Анна Котова-Дерябина, Павел Мисаилов, Ольга Дибцева, Кирилл Мелехов, Сергей Штатнов, Евгений Сармонт

Описание: Чтобы обрушить акции телеканала, совет директоров принимает решение посадить в кресло генерального директора автозаправщика-недотепу и доверить ему съемки сериала. В короткие сроки горе-начальнику удается создать хаос в эфире и установить свои порядки в медиабизнесе. Но неожиданно сериал, который по плану должен был стать величайшим провалом, начинает иметь грандиозный успех…
«Он тряхнет этот шпиль»
Рейтинг и доп. информация:


Видео: 1280x538, (2,40:1), 25 fps, AVC MPEG-4 (x264), Main@L4 ~ 4000 kbps , 0.232 bit/pixel
Аудио: 48 kHz, MPEG Layer 3, 2 ch, ~192.00 kbps avg
Доп. инфо
Внимание! Присутствует ненормативная лексика.
MediaInfo
Общее
Уникальный идентификатор : 22248408606725507405370042212475374760 (0x10BCE33C0D39421A3E73D0125F928CA8)
Полное имя : C:\Мылодрама s01.720p. VapeArle\Мылодрама 01.720p. VapeArle.mkv
Формат : Matroska
Версия формата : Version 4
Размер файла : 752 Мбайт
Продолжительность : 25 м. 6 с.
Общий поток : 4187 Кбит/сек
Дата кодирования : UTC 2019-03-05T03:00:00Z
Программа кодирования : HandBrake 1.1.2 2018090500
Библиотека кодирования : Lavf57.7.2

Видео
Идентификатор : 1
Формат : AVC
Формат/Информация : Advanced Video Codec
Профиль формата : Main@L4
Настройки формата : CABAC / 5 Ref Frames
Параметр CABAC формата : Да
Параметр RefFrames формата : 5 кадров
Идентификатор кодека : V_MPEG4/ISO/AVC
Продолжительность : 25 м. 6 с.
Битрейт : 4000 Кбит/сек
Ширина : 1280 пикселей
Высота : 538 пикселей
Соотношение сторон : 2,40:1
Режим частоты кадров : Постоянный
Частота кадров : 25,000 кадров/сек
Цветовое пространство : YUV
Субдискретизация насыщенности : 4:2:0
Битовая глубина : 8 бит
Тип развёртки : Прогрессивная
Бит/(Пиксели*Кадры) : 0.232
Размер потока : 702 Мбайт (93%)
Библиотека кодирования : x264 core 155 r2901 7d0ff22
Настройки программы : cabac=1 / ref=5 / deblock=1:0:0 / analyse=0x1:0x111 / me=hex / subme=8 / psy=1 / psy_rd=1.00:0.00 / mixed_ref=1 / me_range=16 / chroma_me=1 / trellis=2 / 8x8dct=0 / cqm=0 / deadzone=21,11 / fast_pskip=1 / chroma_qp_offset=-2 / threads=17 / lookahead_threads=2 / sliced_threads=0 / nr=0 / decimate=1 / interlaced=0 / bluray_compat=0 / constrained_intra=0 / bframes=3 / b_pyramid=2 / b_adapt=1 / b_bias=0 / direct=3 / weightb=1 / open_gop=0 / weightp=2 / keyint=250 / keyint_min=25 / scenecut=40 / intra_refresh=0 / rc_lookahead=50 / rc=2pass / mbtree=1 / bitrate=4000 / ratetol=1.0 / qcomp=0.60 / qpmin=0 / qpmax=69 / qpstep=4 / cplxblur=20.0 / qblur=0.5 / vbv_maxrate=20000 / vbv_bufsize=25000 / nal_hrd=none / filler=0 / ip_ratio=1.40 / aq=1:1.00
Default : Да
Forced : Нет
Цветовой диапазон : Limited
Основные цвета : BT.709
Характеристики трансфера : BT.709
Коэффициенты матрицы : BT.709

Аудио
Идентификатор : 2
Формат : MPEG Audio
Версия формата : Version 1
Профиль формата : Layer 3
Настройки формата : Joint stereo / MS Stereo
Идентификатор кодека : A_MPEG/L3
Идентификатор кодека/Подсказка : MP3
Продолжительность : 25 м. 6 с.
Вид битрейта : Постоянный
Битрейт : 192 Кбит/сек
Каналы : 2 канала
Частота : 48,0 КГц
Метод сжатия : С потерями
Размер потока : 34,5 Мбайт (5%)
Заголовок : Stereo
Библиотека кодирования : LAME3.100
Язык : English
Default : Да
Forced : Нет

Информация о торренте:
Размер содержимого: 7.5 GB
Скачан: 1212 раз
Статус: Проверен
Зарегистрирован на трекере: 2019-03-08 16:46
Скачать торрент


Поддержи раздачу — поставь лайк:
BLIZNEC W
2019-03-08 16:47
Интересного и приятного просмотра!!!

Мои раздачи
Писать комментарии на нашем торрент-трекере могут только зарегистрированные пользователи.
Зарегистрируйтесь или авторизируйтесь на сайте.