»
»

Скачать фильм Фаворитка / The Favourite (Йоргос Лантимос) [2018, драма, комедия, биография, история, BDRemux 1080p] DUB [iTunes]+MVO - торрент

Скачать фильм бесплатно через торрент. Фильм доступен на нашем торрент-трекере бесплатно, без регистрации и смс.

Статистика раздачи
178 [ 4.5 MB/s ] ↑ 28.6 GB ↓ 3 [ 5.9 MB/s ]
Автор Сообщение
rainbow.n
2019-03-08 17:24
Фаворитка / The Favourite
Фаворитка / The Favourite Перевод: Профессиональный (полное дублирование) [iTunes]
Cубтитры: русские (форс., полные), английскиe (полные, SDH)
Формат: BDRemux, MKV, H.264, AC3/DTS-HD (MA)
Страна: Ирландия, Великобритания, США
Режиссер: Йоргос Лантимос
Жанр: драма, комедия, биография, история
Продолжительность: 01:59:29
Год выпуска: 2018

В ролях: Оливия Колман, Эмма Стоун, Рэйчел Вайс, Николас Холт, Эмма Дельвес, Фэй Дэвени, Пол Суэйн, Дженнифер Уайт, Лилироуз Стивенс, Дениз Мак, Джеймс Смит, Марк Гэтисс, Горацио, Виллем Далби, Эдвард Аксель, Кэролайн Сен-Пе

Описание: Начало XVIII века. Идет война Англии с Францией. Тем не менее, жизнь в королевстве продолжается. Трон занимает болезненная королева Анна, а руководство страной берет на себя ее близкая подруга леди Сара. Когда при дворе появляется новая служанка Эбигейл, Сара попадает под ее очарование и берет девушку под свое крыло. Для Эбигейл это — шанс вернуться к своим аристократическим корням. Как только Сара устает решать вопросы войны и мира, Эбигейл становится лучшим помощником королевы в этих делах. Крепнущая дружба с Анной дает новой фаворитке возможность реализовать свои амбиции. И лучше не вставать у нее на пути!

7,7/10 85 803

Видео: 1920x1080p (16:9), 23,976 fps, AVC MPEG-4 (x264), High@L4.1 ~ 30,3 Mbit/s, 0.610 bit/pixel

Аудио#1: Русский: 48 kHz, AC3, 3/2 (L,C,R,l,r) + LFE ch, ~384 kbps avg [Профессиональный (полное дублирование) iTunes]
Аудио#2: Русский: 48 kHz, AC3, 2/0 (L,R) ch, ~192 kbps avg [Любительский (многоголосый, закадровый) HDRezka Studio]
Аудио#3: Английский: DTS-HD Master Audio, 8 ch, ~ 3352 kbps, 24-bit (DTS Core: 5.1 ch, 48 kHz, 1509 kbps, 24-bit) [Оригинал]

MI
Общее
Уникальный идентификатор : 17299887390176880806764187062925068085 (0xD03D64D3AB8E95B882EFD6DE6710735)
Полное имя : D:\The.Favourite.2018.1080p.BluRay.REMUX.mkv
Формат : Matroska
Версия формата : Version 4 / Version 2
Размер файла : 28,6 Гбайт
Продолжительность : 1 ч. 59 м.
Режим общего битрейта : Переменный
Общий поток : 34,3 Мбит/сек
Дата кодирования : UTC 2019-03-07 12:17:26
Программа кодирования : mkvmerge v31.0.0 ('Dolores In A Shoestand') 64-bit
Библиотека кодирования : libebml v1.3.6 + libmatroska v1.4.9

Видео
Идентификатор : 1
Формат : AVC
Формат/Информация : Advanced Video Codec
Профиль формата : High@L4.1
Параметр CABAC формата : Да
Параметр RefFrames формата : 2 кадра
Идентификатор кодека : V_MPEG4/ISO/AVC
Продолжительность : 1 ч. 59 м.
Вид битрейта : Переменный
Битрейт : 30,3 Мбит/сек
Ширина : 1920 пикселей
Высота : 1080 пикселей
Соотношение сторон : 16:9
Режим частоты кадров : Постоянный
Частота кадров : 23,976 (24000/1001) кадра/сек
Цветовое пространство : YUV
Субдискретизация насыщенности : 4:2:0
Битовая глубина : 8 бит
Тип развёртки : Прогрессивная
Бит/(Пиксели*Кадры) : 0.610
Размер потока : 25,3 Гбайт (89%)
Язык : English
Default : Нет
Forced : Нет

Аудио #1
Идентификатор : 2
Формат : AC-3
Формат/Информация : Audio Coding 3
Параметр Endianness формата : Big
Идентификатор кодека : A_AC3
Продолжительность : 1 ч. 59 м.
Вид битрейта : Постоянный
Битрейт : 384 Кбит/сек
Каналы : 6 каналов
Расположение каналов : Front: L C R, Side: L R, LFE
Частота : 48,0 КГц
Частота кадров : 31,250 кадров/сек (1536 SPF)
Битовая глубина : 16 бит
Метод сжатия : С потерями
Размер потока : 328 Мбайт (1%)
Заголовок : iTunes
Язык : Russian
ServiceKind/String : Complete Main
Default : Да
Forced : Да

Аудио #2
Идентификатор : 3
Формат : AC-3
Формат/Информация : Audio Coding 3
Параметр Endianness формата : Big
Идентификатор кодека : A_AC3
Продолжительность : 1 ч. 59 м.
Вид битрейта : Постоянный
Битрейт : 192 Кбит/сек
Каналы : 2 канала
Расположение каналов : Front: L R
Частота : 48,0 КГц
Частота кадров : 31,250 кадров/сек (1536 SPF)
Битовая глубина : 16 бит
Метод сжатия : С потерями
Размер потока : 164 Мбайт (1%)
Заголовок : HDRezka
Язык : Russian
ServiceKind/String : Complete Main
Default : Нет
Forced : Нет

Аудио #3
Идентификатор : 4
Формат : DTS
Формат/Информация : Digital Theater Systems
Профиль формата : MA / Core
Режим : 16
Параметр Endianness формата : Big
Идентификатор кодека : A_DTS
Продолжительность : 1 ч. 59 м.
Вид битрейта : Переменный / Постоянный
Битрейт : 3352 Кбит/сек / 1509 Кбит/сек
Каналы : 6 каналов
Расположение каналов : Front: L C R, Side: L R, LFE
Частота : 48,0 КГц
Частота кадров : 93,750 кадра/сек (512 SPF)
Битовая глубина : 24 бит
Метод сжатия : Без потерь / Lossy
Размер потока : 2,80 Гбайт (10%)
Заголовок : The.Favourite.2018.1080p.BluRay.REMUX.AVC.DTS-HD.MA.5.1-FGT
Язык : English
Default : Нет
Forced : Нет

Текст #1
Идентификатор : 5
Формат : UTF-8
Идентификатор кодека : S_TEXT/UTF8
Идентификатор кодека/Информация : UTF-8 Plain Text
Продолжительность : 1 ч. 57 м.
Битрейт : 0 бит/сек
ElementCount : 11
Размер потока : 464 байт (0%)
Заголовок : Forced
Язык : Russian
Default : Да
Forced : Да

Текст #2
Идентификатор : 6
Формат : UTF-8
Идентификатор кодека : S_TEXT/UTF8
Идентификатор кодека/Информация : UTF-8 Plain Text
Продолжительность : 1 ч. 57 м.
Битрейт : 86 бит/сек
ElementCount : 1316
Размер потока : 75,0 Кбайт (0%)
Заголовок : Full
Язык : Russian
Default : Нет
Forced : Нет

Текст #3
Идентификатор : 7
Формат : UTF-8
Идентификатор кодека : S_TEXT/UTF8
Идентификатор кодека/Информация : UTF-8 Plain Text
Продолжительность : 1 ч. 57 м.
Битрейт : 89 бит/сек
ElementCount : 1319
Размер потока : 76,9 Кбайт (0%)
Заголовок : Full
Язык : Ukrainian
Default : Нет
Forced : Нет

Текст #4
Идентификатор : 8
Формат : UTF-8
Идентификатор кодека : S_TEXT/UTF8
Идентификатор кодека/Информация : UTF-8 Plain Text
Продолжительность : 1 ч. 55 м.
Битрейт : 52 бит/сек
ElementCount : 1395
Размер потока : 43,9 Кбайт (0%)
Заголовок : Full
Язык : English
Default : Нет
Forced : Нет

Текст #5
Идентификатор : 9
Формат : UTF-8
Идентификатор кодека : S_TEXT/UTF8
Идентификатор кодека/Информация : UTF-8 Plain Text
Продолжительность : 1 ч. 57 м.
Битрейт : 56 бит/сек
ElementCount : 1584
Размер потока : 48,7 Кбайт (0%)
Заголовок : SDH
Язык : English
Default : Нет
Forced : Нет

Меню
00:00:00.000 : :Chapter 01
00:18:36.323 : :Chapter 02
00:40:35.266 : :Chapter 03
00:46:44.134 : :Chapter 04
01:06:23.145 : :Chapter 05
01:15:12.466 : :Chapter 06
01:28:32.473 : :Chapter 07
01:36:55.768 : :Chapter 08

Информация о торренте:
Размер содержимого: 28.6 GB
Скачан: 294 раза
Статус: Проверен
Зарегистрирован на трекере: 2019-03-08 16:24
Скачать торрент


Поддержи раздачу — поставь лайк:

Писать комментарии на нашем торрент-трекере могут только зарегистрированные пользователи.
Зарегистрируйтесь или авторизируйтесь на сайте.