»
»

Скачать фильм Нахлебник (Владимир Басов, Мстислав Корчагин) / [1953, драма, история, DVDRip-AVC] - торрент

Скачать через торрент фильм вы можете, нажав на синюю кнопку. Фильм доступен на нашем торрент-трекере бесплатно, без регистрации и смс.

Статистика раздачи
9 [ 0 b/s ] ↑ 1.5 GB ↓ 0 [ 0 b/s ]
Автор Сообщение
BLIZNEC W
2019-03-08 14:04
Нахлебник
Нахлебник Формат: DVDRip-AVC, MKV, H.264, AC3
Режиссер: Владимир Басов, Мстислав Корчагин
Жанр: драма, история
Продолжительность: 01:32:37
Год выпуска: 1953

В ролях: Борис Чирков, Сергей Курилов, Лидия Драновская, Павел Шпрингфельд, Сергей Комаров, Степан Крылов, Георгий Георгиу, Владимир Уральский, Александра Денисова, Римма Шорохова, Владимир Борискин

Описание: Фильм-спектакль, драма по одноименной пьесе И.С.Тургенева. Постановка Театра-студии киноактера; режиссер спектакля – Борис Лифанов, художник спектакля – К.Ефимов.
После многолетнего отсутствия из Петербурга в свое имение приезжает с мужем молодая помещица Елецкая. Молодых встречает бедный дворянин Кузовкин (Б.Чирков) – нахлебник в доме Елецкой. Ее муж и окрестные помещики, томимые скукой провинциальной жизни, потешаются над стариком, унижая его человеческое достоинство. Не выдержав издевательств, Кузовкин во всеуслышание объявляет, что хозяйка имения – его дочь. По настоянию Елецкого старик покидает дом своей дочери.


Рейтинг и доп. информация:


Видео: 688->762x572, (4:3), 25 fps, AVC MPEG-4 (x264), High@L4.1 ~ 2061 kbps , 0.209 bit/pixel
Аудио: 48 kHz, АС3, 2/0 (L,R), ~192.00 kbps avg
MediaInfo
Общее
Полное имя : Nahlebnik.1953.DVDRip-AVC_[New-team]_by_AVP_Studio.mkv
Формат : Matroska
Версия формата : Version 2
Размер файла : 1,46 Гбайт
Продолжительность : 1 ч. 32 м.
Общий поток : 2255 Кбит/сек
Дата кодирования : UTC 2016-03-18 15:53:59
Программа кодирования : mkvmerge v6.1.0 ('Old Devil') built on Mar 4 2013 09:10:42
Библиотека кодирования : libebml v1.3.0 + libmatroska v1.4.0

Видео
Идентификатор : 1
Формат : AVC
Формат/Информация : Advanced Video Codec
Профиль формата : High@L4.1
Параметр CABAC формата : Да
Параметр ReFrames формата : 10 кадров
Идентификатор кодека : V_MPEG4/ISO/AVC
Продолжительность : 1 ч. 32 м.
Битрейт : 2061 Кбит/сек
Ширина : 688 пикселей
Высота : 572 пикселя
Соотношение сторон : 4:3
Режим частоты кадров : Постоянный
Частота кадров : 25,000 кадров/сек
Цветовое пространство : YUV
Субдискретизация насыщенности : 4:2:0
Битовая глубина : 8 бит
Тип развёртки : Прогрессивная
Бит/(Пиксели*Кадры) : 0.209
Размер потока : 1,31 Гбайт (89%)
Библиотека кодирования : x264 core 130 r2273 b3065e6
Настройки программы : cabac=1 / ref=10 / deblock=1:-2:-1 / analyse=0x3:0x113 / me=umh / subme=10 / psy=1 / psy_rd=1.00:0.00 / mixed_ref=1 / me_range=32 / chroma_me=1 / trellis=2 / 8x8dct=1 / cqm=0 / deadzone=21,11 / fast_pskip=1 / chroma_qp_offset=-2 / threads=6 / lookahead_threads=1 / sliced_threads=0 / nr=0 / decimate=0 / interlaced=0 / bluray_compat=0 / constrained_intra=0 / bframes=8 / b_pyramid=2 / b_adapt=2 / b_bias=0 / direct=3 / weightb=1 / open_gop=0 / weightp=2 / keyint=250 / keyint_min=25 / scenecut=40 / intra_refresh=0 / rc=2pass / mbtree=0 / bitrate=2061 / ratetol=1.0 / qcomp=0.60 / qpmin=0 / qpmax=69 / qpstep=4 / cplxblur=20.0 / qblur=0.5 / ip_ratio=1.40 / pb_ratio=1.30 / aq=1:1.00
Default : Да
Forced : Нет

Аудио
Идентификатор : 2
Формат : AC-3
Формат/Информация : Audio Coding 3
Расширение режима : CM (complete main)
Параметр Endianness формата : Big
Идентификатор кодека : A_AC3
Продолжительность : 1 ч. 32 м.
Вид битрейта : Постоянный
Битрейт : 192 Кбит/сек
Каналы : 2 канала
Расположение каналов : Front: L R
Частота : 48,0 КГц
Частота кадров : 31,250 кадров/сек (1536 spf)
Метод сжатия : С потерями
Размер потока : 127 Мбайт (9%)
Default : Да
Forced : Нет

Информация о торренте:
Размер содержимого: 1.5 GB
Скачан: 77 раз
Статус: Проверен
Зарегистрирован на трекере: 2019-03-08 13:04
Скачать торрент


Поддержи раздачу — поставь лайк:
BLIZNEC W
2019-03-08 13:04
Интересного и приятного просмотра!!!

Мои раздачи
Писать комментарии на нашем торрент-трекере могут только зарегистрированные пользователи.
Зарегистрируйтесь или авторизируйтесь на сайте.