»
»

Скачать фильм Летние впечатления о планете Z (1-2 серии из 2) (Евгений Марковский) / [1986, детский, фантастика, SATRip-AVC] - торрент

Скачать фильм бесплатно через торрент. Фильм доступен на нашем торрент-трекере бесплатно, без регистрации и смс.

Статистика раздачи
41 [ 0 b/s ] ↑ 2.6 GB ↓ 0 [ 0 b/s ]
Автор Сообщение
BLIZNEC W
2019-03-08 13:47
Летние впечатления о планете Z (1-2 серии из 2)
Летние впечатления о планете Z Формат: SATRip-AVC, MKV, H.264, AC3
Режиссер: Евгений Марковский
Жанр: детский, фантастика
Продолжительность: 01:04:37 + 01:08:05
Год выпуска: 1986

В ролях: Арнас Катинас, Гедрюс Пускунигис, Сергей Шакуров, Дмитрий Андриевский, Галина Макарова, Женя Тумилович, Николай Марковский, Дмитрий Матвеев, Ирина Зеленко, Ирина Жангарова, Вадим Гемс, Сергей Бирюков (II), Игорь Тарадайкин, Валентин Букин, Илона Кособуко, Нина Нижерадзе, Владимир Грицевский, Дмитрий Харатьян, Дмитрий Иосифов, Андрей Шитиков, Константин Ремишевский, И. Усыченко, Н. Батурчик, М. Руденко, А. Голубкова, Юля Суслова, Т. Черных

Описание: Фильм для детей снят по книге Юрия Томина "Карусели над городом". Пришелец из космоса Феликс, мальчик 12 лет, попадает во время летних каникул в детский спортивный лагерь. В летнем спортивном лагере мало кто знал что мальчик Феликс попал туда не случайно. Что еще несколько дней назад он появился на свет в школьной лаборатории, потому что инопланетный разум прислал на землю разведчика чтоб изучить землян. В этом ему помогают обыкновенный мальчишка Боря и учитель Алексей Палыч, которые учат Феликса всем обычаям и местным традициям. Свои впечатления о жизни на Земле он передает в космос. Но все равно порой ребята оказываются на грани разоблачения... Это рассказ о новых друзьях – детях и взрослых, о дружбе, взаимопомощи и смешных недоразумениях, в которые он попадает на незнакомой планете.

Рейтинг и доп. информация:


Видео #1: 532x572@756x572, (4:3), 25 fps, AVC MPEG-4 (x264), High@L4.1 ~ 2440 kbps , 0.321 bit/pixel
Видео #2: 532x572@756x572, (4:3), 25 fps, AVC MPEG-4 (x264), High@L4.1 ~ 2712 kbps , 0.356 bit/pixel
Аудио: 48 kHz, MPEG Layer 3, 2 ch, ~256.00 kbps avg
Mediainfo 1 серия
x264 [info]: frame I:548 Avg QP:17.81 size: 51347
x264 [info]: frame P:21087 Avg QP:19.62 size: 25700
x264 [info]: frame B:75306 Avg QP:21.25 size: 8134
x264 [info]: consecutive B-frames: 1.6% 2.6% 8.5% 20.1% 22.2% 34.7% 6.0% 1.4% 1.4% 0.6% 0.4% 0.2% 0.1%

General
Unique ID : 113769909760049049342386016882697796300 (0x559749A000EC0DF06F20255C4FB97ACC)
Complete name : S:FILMSЛетние впечатления о планете Z (1986)Летние впечатления о планете Z. Серия 1 (1986) SATRip-AVC - KORSAR.mkv
Format : Matroska
Format version : Version 4 / Version 2
File size : 1.22 GiB
Duration : 1 h 4 min
Overall bit rate : 2 698 kb/s
Movie name : Летние впечатления о планете Z (1986)_rip_by_Cthulhu
Encoded date : UTC 2019-03-03 14:17:40
Writing application : mkvmerge v28.2.0 ('The Awakening') 64-bit
Writing library : libebml v1.3.6 + libmatroska v1.4.9
Cover : Yes
Attachments : cover.jpg

Video
ID : 1
Format : AVC
Format/Info : Advanced Video Codec
Format profile : High@L4.1
Format settings, CABAC : Yes
Format settings, RefFrames : 14 frames
Codec ID : V_MPEG4/ISO/AVC
Duration : 1 h 4 min
Bit rate : 2 440 kb/s
Width : 532 pixels
Height : 572 pixels
Display aspect ratio : 4:3
Original display aspect ratio : 4:3
Frame rate mode : Constant
Frame rate : 25.000 FPS
Color space : YUV
Chroma subsampling : 4:2:0
Bit depth : 8 bits
Scan type : Progressive
Bits/(Pixel*Frame) : 0.321
Stream size : 1.10 GiB (90%)
Writing library : x264 core 152 r2851kMod ba24899
Encoding settings : cabac=1 / ref=14 / deblock=1:-2:-2 / analyse=0x3:0x133 / me=umh / subme=11 / psy=1 / fade_compensate=0.00 / psy_rd=1.10:0.05 / mixed_ref=1 / me_range=48 / chroma_me=1 / trellis=2 / 8x8dct=1 / cqm=0 / deadzone=21,11 / fast_pskip=1 / chroma_qp_offset=-3 / threads=18 / lookahead_threads=4 / sliced_threads=0 / nr=0 / decimate=1 / interlaced=0 / bluray_compat=0 / constrained_intra=0 / bframes=12 / b_pyramid=2 / b_adapt=2 / b_bias=0 / direct=3 / weightb=1 / open_gop=0 / weightp=2 / keyint=250 / keyint_min=25 / scenecut=40 / intra_refresh=0 / rc=crf / mbtree=0 / crf=18.0000 / qcomp=0.60 / qpmin=0 / qpmax=39 / qpstep=4 / ip_ratio=1.40 / pb_ratio=1.30 / aq=2:1.00
Language : Russian
Default : Yes
Forced : No
Color range : Limited
Color primaries : BT.601 PAL
Transfer characteristics : BT.470 System B, BT.470 System G
Matrix coefficients : BT.601

Audio
ID : 2
Format : MPEG Audio
Format version : Version 1
Format profile : Layer 2
Codec ID : A_MPEG/L2
Codec ID/Hint : MP2
Duration : 1 h 4 min
Bit rate mode : Constant
Bit rate : 256 kb/s
Channel(s) : 2 channels
Sampling rate : 48.0 kHz
Frame rate : 41.667 FPS (1152 spf)
Compression mode : Lossy
Stream size : 118 MiB (9%)
Language : Russian
Default : Yes
Forced : No
Mediainfo 2 серия
x264 [info]: frame I:570 Avg QP:18.43 size: 50524
x264 [info]: frame P:24677 Avg QP:20.28 size: 26632
x264 [info]: frame B:76888 Avg QP:21.94 size: 9089
x264 [info]: consecutive B-frames: 2.6% 3.8% 11.0% 28.4% 20.5% 27.4% 3.9% 0.7% 0.9% 0.5% 0.1% 0.1% 0.2%

General
Unique ID : 119922196564503610942683696156361580809 (0x5A382CC89B82B01AB1AB7B7A08736109)
Complete name : S:FILMSЛетние впечатления о планете Z (1986)Летние впечатления о планете Z. Серия 2 (1986) SATRip-AVC - KORSAR.mkv
Format : Matroska
Format version : Version 4 / Version 2
File size : 1.41 GiB
Duration : 1 h 8 min
Overall bit rate : 2 970 kb/s
Movie name : Летние впечатления о планете Z (1986)_rip_by_Cthulhu
Encoded date : UTC 2019-03-03 14:22:12
Writing application : mkvmerge v28.2.0 ('The Awakening') 64-bit
Writing library : libebml v1.3.6 + libmatroska v1.4.9
Cover : Yes
Attachments : cover.jpg

Video
ID : 1
Format : AVC
Format/Info : Advanced Video Codec
Format profile : High@L4.1
Format settings, CABAC : Yes
Format settings, RefFrames : 14 frames
Codec ID : V_MPEG4/ISO/AVC
Duration : 1 h 8 min
Bit rate : 2 712 kb/s
Width : 532 pixels
Height : 572 pixels
Display aspect ratio : 4:3
Original display aspect ratio : 4:3
Frame rate mode : Constant
Frame rate : 25.000 FPS
Color space : YUV
Chroma subsampling : 4:2:0
Bit depth : 8 bits
Scan type : Progressive
Bits/(Pixel*Frame) : 0.356
Stream size : 1.29 GiB (91%)
Writing library : x264 core 152 r2851kMod ba24899
Encoding settings : cabac=1 / ref=14 / deblock=1:-2:-2 / analyse=0x3:0x133 / me=umh / subme=11 / psy=1 / fade_compensate=0.00 / psy_rd=1.00:0.10 / mixed_ref=1 / me_range=48 / chroma_me=1 / trellis=2 / 8x8dct=1 / cqm=0 / deadzone=21,11 / fast_pskip=1 / chroma_qp_offset=-3 / threads=18 / lookahead_threads=4 / sliced_threads=0 / nr=0 / decimate=1 / interlaced=0 / bluray_compat=0 / constrained_intra=0 / bframes=12 / b_pyramid=2 / b_adapt=2 / b_bias=0 / direct=3 / weightb=1 / open_gop=0 / weightp=2 / keyint=250 / keyint_min=25 / scenecut=40 / intra_refresh=0 / rc=crf / mbtree=0 / crf=18.0000 / qcomp=0.60 / qpmin=0 / qpmax=39 / qpstep=4 / ip_ratio=1.40 / pb_ratio=1.30 / aq=2:1.00
Language : Russian
Default : Yes
Forced : No
Color range : Limited
Color primaries : BT.601 PAL
Transfer characteristics : BT.470 System B, BT.470 System G
Matrix coefficients : BT.601

Audio
ID : 2
Format : MPEG Audio
Format version : Version 1
Format profile : Layer 2
Codec ID : A_MPEG/L2
Codec ID/Hint : MP2
Duration : 1 h 8 min
Bit rate mode : Constant
Bit rate : 256 kb/s
Channel(s) : 2 channels
Sampling rate : 48.0 kHz
Frame rate : 41.667 FPS (1152 spf)
Compression mode : Lossy
Stream size : 125 MiB (9%)
Language : Russian
Default : Yes
Forced : No
Показать скриншоты
1 серия:






2 серия:







Информация о торренте:
Размер содержимого: 2.6 GB
Скачан: 76 раз
Статус: Проверен
Зарегистрирован на трекере: 2019-03-08 12:47
Скачать торрент


Поддержи раздачу — поставь лайк:
BLIZNEC W
2019-03-08 12:47
Интересного и приятного просмотра!!!

Мои раздачи
Писать комментарии на нашем торрент-трекере могут только зарегистрированные пользователи.
Зарегистрируйтесь или авторизируйтесь на сайте.