»
»

Скачать мультфильм Нео-человек Кассян: Семейные узы / Shinzou Ningen Casshern: Kazoku no kizuna (Сасагава Хироси) [1973, фантастика, меха, DVDRip] - торрент

Нажмите на синюю кнопку ниже, чтобы скачать мультфильм бесплатно через торрент. Мультфильм доступен на нашем торрент-трекере бесплатно, без регистрации и смс.

Статистика раздачи
2 [ 0 b/s ] ↑ 998.8 MB ↓ 0 [ 0 b/s ]
Автор Сообщение
Трамвай фильм
2019-03-07 19:33
Нео-человек Кассян: Семейные узы / Shinzou Ningen Casshern: Kazoku no kizuna
Нео-человек Кассян: Семейные узы / Shinzou Ningen Casshern: Kazoku no kizuna Перевод: Авторский (Трамвай-фильм), cубтитры: отсутствуют
Формат: DVDRip, MKV, XviD, MP3
Страна: Япония
Режиссер: Сасагава Хироси
Жанр: фантастика, меха
Продолжительность: 01:26:31
Год выпуска: 1973

Описание: История семьи Адзума, разделенной войной человечества и машин, где главную роль играет Кассян, в прошлом сын доктора Адзума, по имени Тетсуя.

[IMDB=https://www.imdb.com/title/tt0192886/]
Видео: 512x384 (4:3), 29.97fps, Xvid MPEG-4 ~1 454 kbps avg, 0.247 bit/pixel
Аудио: 44.1 kHz, MPEG Layer 3, 2 ch, ~128.00 kbps avg

Доп. информация: Полуторочасовая выжимка из сериала Нео-человек Кассян / Shinzo Ningen Casshan.

MI

General
Complete name : shinzo.ningen.casshan.movie.mkv
Format : Matroska
Format version : Version 2
File size : 999 MiB
Duration : 1 h 26 min
Overall bit rate : 1 614 kb/s
Encoded date : UTC 2013-07-12 16:48:43
Writing application : mkvmerge v4.6.0 ('Still Crazy After All These Years') сборка от Mar 10 2011 02:50:32
Writing library : libebml v1.2.0 + libmatroska v1.1.0

Video
ID : 1
Format : MPEG-4 Visual
Format profile : Simple@L3
Format settings, BVOP : No
Format settings, QPel : No
Format settings, GMC : No warppoints
Format settings, Matrix : Default (H.263)
Codec ID : V_MS/VFW/FOURCC / XVID
Codec ID/Hint : XviD
Duration : 1 h 26 min
Bit rate : 1 454 kb/s
Width : 512 pixels
Height : 384 pixels
Display aspect ratio : 4:3
Frame rate mode : Constant
Frame rate : 29.970 FPS
Original frame rate : 29.000 FPS
Color space : YUV
Chroma subsampling : 4:2:0
Bit depth : 8 bits
Scan type : Progressive
Compression mode : Lossy
Bits/(Pixel*Frame) : 0.247
Stream size : 900 MiB (90%)
Writing library : XviD 1.2.1 (UTC 2008-12-04)
Default : Yes
Forced : No

Audio
ID : 2
Format : MPEG Audio
Format version : Version 1
Format profile : Layer 3
Muxing mode : Header stripping
Codec ID : A_MPEG/L3
Codec ID/Hint : MP3
Duration : 1 h 26 min
Bit rate mode : Constant
Bit rate : 128 kb/s
Channel(s) : 2 channels
Sampling rate : 44.1 kHz
Frame rate : 38.281 FPS (1152 SPF)
Compression mode : Lossy
Stream size : 79.2 MiB (8%)
Writing library : LAME3.99r
Encoding settings : -m s -V 4 -q 3 -lowpass 17 -b 128
Default : Yes
Forced : Yes


Информация о торренте:
Размер содержимого: 998.8 MB
Скачан: 139 раз
Статус: Авторская раздача
Зарегистрирован на трекере: 2019-03-07 18:33
Скачать торрент


Поддержи раздачу — поставь лайк:
Писать комментарии на нашем торрент-трекере могут только зарегистрированные пользователи.
Зарегистрируйтесь или авторизируйтесь на сайте.