»
»

Скачать сериал Содержанки (1-8 серия из 8) (Константин Богомолов) / [2019, триллер, эротика, WEBRip 1080p] - торрент

Торрент можно скачать, нажав синюю кнопку ниже. Сериал доступен на нашем торрент-трекере бесплатно, без регистрации и смс.

Статистика раздачи
2024 [ 6.1 MB/s ] ↑ 17.8 GB ↓ 7 [ 13.1 MB/s ]
Автор Сообщение
BLIZNEC W
2019-03-07 19:25
Содержанки (1-8 серия из 8)
Содержанки Перевод: Не требуется, cубтитры: отсутствуют
Формат: WEBRip 1080p, AVI, XviD, AC3
Страна: Россия
Режиссер: Константин Богомолов
Жанр: триллер, эротика
Всего серий: 8
Продолжительность: 8 х ~ 00:54:00
Год выпуска: 2019

В ролях: Дарья Мороз, Соня Эрнст, Сергей Бурунов, Владимир Мишуков, Александр Збруев, Марина Зудина, Ольга Сутулова, Александр Кузнецов, Пётр Скворцов, Леонид Бичевин, Ирина Старшенбаум, Александра Ребенок, Семён Штейнберг, Александра Ревенко, Сергей Чонишвили, Сабина Ахмедова, Игорь Гордин, Мария Фомина, Игорь Титов, Александр Воробьёв, Владимир Храбров, Роза Хайруллина, Ксения Собчак, Кирилл Власов, Анастасия Сапожникова, Михаил Асанкин, Елизавета Шакира, Константин Богомолов, Артём Кошман, Ирина Сосновая, Сергей Борисов, Юлия Бурлова, Григорий Верник, Надежда Оболенцева, Вадим Верник, Илья Дель, Артём Соколов, Павел Ващилин, Евгений Перевалов, Андрей Фомин, Сергей Швыдкой, Кирилл Трубецкой, Василий Мичков, Дмитрий Шаблинский, Александр Котлов, Александр Горелов, Антон Куценко, Алексей Агапов, Александра Черкасова-Служитель, Мария Романова, Вячеслав Манучаров, Анна Галинова, Александр Андриевич, Вячеслав Гуливицкий, Руслан Джайбеков, Серафима Красникова, Анастасия Куимова, Василий Михайлов, Павел Савинов, Линда Табагари, Юлия Хамитова, Андрей Чеботарев, Сергей Иванюк, Мария Карпова, Юлия Азарна, Михаил Петров, Алексей Кириченко, Денис Лукин, Данила Гнедьков, Виктория Самилкина, Дарья Филиппова, Александра Дмитровская, Катя Янкович, Алексей Дубина, Юлия Макарова, Вячеслав Гулевицкий

Описание: Настоящее время. Москва. Город больших денег и страстей, великолепных женщин и состоятельных мужчин, светских раутов и опасных интриг. Здесь красивые девушки мечтают попасть в мир гламура, струящихся шелков и драгоценностей, а главная светская сваха города ловко пристраивает их в надежные руки. Сюда приезжает молодая амбициозная художница из провинции. Она мечтает о новой, лучшей жизни, но загадочное и жестокое происшествие изменит всё.

Рейтинг и доп. информация:


Видео: 1920х1080, (16:9), 23,976 fps, AVC MPEG-4 (x264), High@L4 ~ 6400 kbps , 0.129 bit/pixel
Аудио: 48 kHz, AC3, 2/0 (L,R) ch, ~192 kbps
MediaInfo
Общее
Уникальный идентификатор : 233200979009320701348414632773796530462 (0xAF70DFF6653FA58A855BACB9EA70891E)
Полное имя : C:\Soderzhanki.2019.WEB-DL.(1080p).Getty\Soderzhanki.e01.2019.WEB-DL.(1080p).Getty.mkv
Формат : Matroska
Версия формата : Version 4
Размер файла : 2,50 Гбайт
Продолжительность : 54 м. 22 с.
Общий поток : 6580 Кбит/сек
Название фильма : Soderzhanki.e01.2019.WEB-DL.(1080p).Getty
Дата кодирования : UTC 2019-03-07 13:02:34
Программа кодирования : mkvmerge v7.8.0 ('River Man') 32bit built on Mar 27 2015 16:18:02
Библиотека кодирования : libebml v1.3.1 + libmatroska v1.4.2

Видео
Идентификатор : 1
Формат : AVC
Формат/Информация : Advanced Video Codec
Профиль формата : High@L4
Настройки формата : CABAC / 4 Ref Frames
Параметр CABAC формата : Да
Параметр RefFrames формата : 4 кадра
Идентификатор кодека : V_MPEG4/ISO/AVC
Продолжительность : 54 м. 22 с.
Битрейт : 6400 Кбит/сек
Ширина : 1920 пикселей
Высота : 1080 пикселей
Соотношение сторон : 16:9
Режим частоты кадров : Постоянный
Частота кадров : 23,976 (24000/1001) кадра/сек
Цветовое пространство : YUV
Субдискретизация насыщенности : 4:2:0
Битовая глубина : 8 бит
Тип развёртки : Прогрессивная
Бит/(Пиксели*Кадры) : 0.129
Размер потока : 2,43 Гбайт (97%)
Default : Да
Forced : Нет

Аудио
Идентификатор : 2
Формат : AC-3
Формат/Информация : Audio Coding 3
Коммерческое название : Dolby Digital
Идентификатор кодека : A_AC3
Продолжительность : 54 м. 22 с.
Вид битрейта : Постоянный
Битрейт : 192 Кбит/сек
Каналы : 2 канала
Channel layout : L R
Частота : 48,0 КГц
Частота кадров : 31,250 кадров/сек (1536 SPF)
Битовая глубина : 16 бит
Метод сжатия : С потерями
Размер потока : 74,7 Мбайт (3%)
ServiceKind/String : Complete Main
Default : Да
Forced : Нет

Информация о торренте:
Размер содержимого: 17.8 GB
Скачан: 1136 раз
Статус: Проверен
Зарегистрирован на трекере: 2019-04-18 12:01
Скачать торрент


Поддержи раздачу — поставь лайк:
BLIZNEC W
2019-03-07 18:25
Интересного и приятного просмотра!!!

Мои раздачи
medved_as
2019-03-08 12:14
И даже завязка сюжета захватывающая :nice: , тема сисек - раскрыта :o
huldra
2019-03-08 18:07
шикарный фильм!!!
rdv
2019-04-22 20:08
В целом фильм на 3
Писать комментарии на нашем торрент-трекере могут только зарегистрированные пользователи.
Зарегистрируйтесь или авторизируйтесь на сайте.