»
»

Скачать сериал Чернов (1-12 серии из 12) (Сергей Бобров (II)) / [2019, детектив, криминал, мистика, фантастика, триллер, WEBRip 1080p] - торрент

Нажмите на синюю кнопку, чтобы скачать сериал через торрент бесплатно. Сериал доступен на нашем торрент-трекере бесплатно, без регистрации и смс.

Статистика раздачи
338 [ 3.3 MB/s ] ↑ 24.5 GB ↓ 7 [ 4.3 MB/s ]
Автор Сообщение
BLIZNEC W
2019-03-07 01:11
Чернов (1-12 серии из 12)
Чернов Перевод: Не требуется, cубтитры: отсутствуют
Формат: WEBRip 1080p, MKV, H.264, AC3
Страна: Россия
Режиссер: Сергей Бобров (II)
Жанр: детектив, криминал, мистика, фантастика, триллер
Всего серий: 12
Продолжительность: 12 x ~ 00:48:00
Год выпуска: 2019

В ролях: Виктор Логинов, Эмилия Спивак, Валентина Ляпина, Сергей Губанов, Максим Линников, Ислам Зафесов, Анна Арланова, Василий Шемякинский, Лариса Домаскина, Эрнест Тимерханов, Антон Эльдаров, Игорь Ветров (II), Глеб Подгородинский, Александр Поликарпов, Юлия Агафонова, Александр Барановский, Александр Михайлов (X), Илья Оболонков, Татьяна Ошуркова, Николай Сахаров, Арсений Сидоров, Светлана Тимофеева-Летуновская, Сергей Фатьянов, Арина Борисова, Михаил Станкевич, Евгений Смирнов-Иваницкий, Дмитрий Янышевский, Александр Синюков, Карина Губанова, Александр Дзюба (II), Елена Соловьева (II), Александр Коновалов, Анна Карышева

Описание: В свой день рождения капитан полиции Чернов приезжает на службу и получает сообщение, что после его ухода к нему в дом ворвались бандиты и тяжело ранили его жену Людмилу. Врачи спасают Людмилу, но она остается в коме. Чернов горюет, но внезапно Людмила выходит на связь с Черновым из потустороннего мира. Она подсказывает ему, как найти и наказать ее обидчиков. С этого момента Чернов регулярно получает сообщения от Людмилы. Иногда она появляется перед ним в телевизоре, на картине или просто в воздухе. Иногда он словно переносится в тот день, когда Людмилу хотели убить – раз за разом Чернов переживает те минуты, когда он последний раз видел Людмилу в сознании. И каждая такая встреча несет в себе ключ к раскрытию очередного дела, расследуемого Черновым. И только размотав клубок из казалось бы несвязанных между собой престу

Рейтинг и доп. информация:


Видео: 1920x1080, (16:9), 25 fps, AVC MPEG-4 (x264), High@L4.1 ~ 6000 kbps , 0.116 bit/pixel
Аудио: 48 kHz, АС3, 2/0 (L,R), ~192.00 kbps avg
MediaInfo
Общее
Уникальный идентификатор : 203228859343568681933435971643535952552 (0x98E4745F2E4A3E7FA63F0A79782E8AA8)
Полное имя : C:\Chernov.2018.WEB-DL.(1080р).Kinozal-Reliz.by.Olyanchik\01.Chernov.2018.WEB-DL.(1080р).by.Olyanchik.mkv
Формат : Matroska
Версия формата : Version 4
Размер файла : 1,69 Гбайт
Продолжительность : 39 м. 27 с.
Режим общего битрейта : Постоянный
Общий поток : 6150 Кбит/сек
Дата кодирования : UTC 2019-03-04 18:04:35
Программа кодирования : mkvmerge v9.6.0 ('Slave To Your Mind') 64bit
Библиотека кодирования : libebml v1.3.4 + libmatroska v1.4.5

Видео
Идентификатор : 1
Формат : AVC
Формат/Информация : Advanced Video Codec
Профиль формата : High@L4.1
Настройки формата : 2 Ref Frames
Параметр CABAC формата : Нет
Параметр RefFrames формата : 2 кадра
Идентификатор кодека : V_MPEG4/ISO/AVC
Продолжительность : 39 м. 27 с.
Вид битрейта : Постоянный
Битрейт : 6000 Кбит/сек
Ширина : 1920 пикселей
Высота : 1080 пикселей
Соотношение сторон : 16:9
Режим частоты кадров : Постоянный
Частота кадров : 25,000 кадров/сек
Стандарт вещания : PAL
Цветовое пространство : YUV
Субдискретизация насыщенности : 4:2:0
Битовая глубина : 8 бит
Тип развёртки : Прогрессивная
Бит/(Пиксели*Кадры) : 0.116
Размер потока : 1,64 Гбайт (97%)
Язык : English
Default : Да
Forced : Нет
Цветовой диапазон : Limited
Основные цвета : BT.709
Характеристики трансфера : BT.709
Коэффициенты матрицы : BT.709

Аудио
Идентификатор : 2
Формат : AC-3
Формат/Информация : Audio Coding 3
Коммерческое название : Dolby Digital
Идентификатор кодека : A_AC3
Продолжительность : 39 м. 27 с.
Вид битрейта : Постоянный
Битрейт : 192 Кбит/сек
Каналы : 2 канала
Channel layout : L R
Частота : 48,0 КГц
Частота кадров : 31,250 кадров/сек (1536 SPF)
Битовая глубина : 16 бит
Метод сжатия : С потерями
Размер потока : 54,2 Мбайт (3%)
ServiceKind/String : Complete Main
Default : Да
Forced : Нет

Информация о торренте:
Размер содержимого: 24.5 GB
Скачан: 524 раза
Статус: Проверен
Зарегистрирован на трекере: 2019-03-09 12:13
Скачать торрент


Поддержи раздачу — поставь лайк:
BLIZNEC W
2019-03-07 00:12
Интересного и приятного просмотра!!!

Мои раздачи
Писать комментарии на нашем торрент-трекере могут только зарегистрированные пользователи.
Зарегистрируйтесь или авторизируйтесь на сайте.