»
»

Лорена, 1 сезон 1-2 серия из 4 / Lorena (Джошуа Рофе) [2019, Документальный, WEBRip 720p] MVO

Скачать торрент можно, нажав на синюю кнопку ниже.

Автор Сообщение
IdeaFilm
2019-03-05 14:49
Лорена / Lorena
Лорена, 1 сезон 1-2 серия из 4 / Lorena Перевод: Профессиональный (многоголосый, закадровый) IdeaFilm
Субтитры: отсутствуют
Формат: WEBRip, MKV, h.264, AC3
Страна: США
Режиссер: Джошуа Рофе
Жанр: Документальный
Всего серий: 4
Продолжительность: 2 х ~00:60:00
Год выпуска: 2019

В ролях: Лорена Боббитт, Джон Уэйн Боббитт, Пол Эберт, Джозеф Р. Байден, Блэр Ховард, Дженни Джонс, Ларри Кинг, Ким Мастерс, Херальдо Ривера, Дэвид Берман.

Описание: Джордан Пил подготовил документальный сериал о сенсационном деле пары Лорены и Джона Уэйнов Боббитов. После обвинений в домашнем насилии. За этим последовал затяжной и эксплуатируемый судебный процесс в средствах массовой информации, который также освещается в серии. Супруга нередко подвергалась жестокому обращению со стороны мужа. Судебный процесс проходил в 1993 году. Это случай сделал пару мегапопулярными личностями по всему миру. В суде сразу рассматривалось два дела, где каждый обвинялся в домашнем насилии.

Рейтинг на: [imdb=http://www.imdb.com/title/tt9134666/]

Видео: 1280x720 (16/9), 23,976 fps, AVC (х264), High@L3.1, ~4500 kbps avg, 0.204 bit/pixel
Аудио #1 Rus: :48 kHz, AC3 Dolby Digital, 3/2 (L,C,R,l,r) + LFE ch, ~384 kbps
Аудио #1 Eng: :48 kHz, AC3 Dolby Digital, 3/2 (L,C,R,l,r) + LFE ch, ~384 kbps

Внимание, присутствует реклама!

Внимание! Раздача ведётся путём добавления новых серий

Внимание! Раздача ведётся путём добавления новых серий; при каждом добавлении создаётся новый торрент. Чтобы начать докачку новой серии, пользователям необходимо сделать следующее:
(1) остановить скачивание,
(2) удалить старый торрент у себя из клиента (старые серии удалять не надо),
(3) скачать новый торрент и запустить его у себя в клиенте вместо старого, при этом указать клиенту путь в старую папку куда и должно происходить скачивание новых серий.

Ваш клиент при этом должен произвести хеширование (проверку) старой папки (если не производит сам - помогите ему сделать это), и будет докачивать только те серии которых у вас ещё нет. Старые серии при этом не удаляются, а продолжают раздаваться!

Eсли вы уже удалили старые серии, то предотвратить повторную закачку старых серий можно, отжав галочку в соответствующих местах при запуске нового торрента. По возможности, желательно не удалять старые серии как можно дольше, чтобы релизёр не столько продолжал раздавать старые серии, а смог сконцентрироваться на новых.
MediaInfo

Общее
Уникальный идентификатор : 32814976795070133891163253159680914817 (0x18AFEF44CA338093A63FD7F4FF69B581)
Полное имя : D:\IDEAFILM\Lorena.S01.WEBRip.720p\Lorena.S01E01.WEBRip.720p-IdeaFilm.mkv
Формат : Matroska
Версия формата : Version 4
Размер файла : 2,29 Гбайт
Продолжительность : 1 ч. 2 м.
Общий поток : 5215 Кбит/сек
Дата кодирования : UTC 2019-03-04 18:28:36
Программа кодирования : mkvmerge v25.0.0 ('Prog Noir') 64-bit
Библиотека кодирования : libebml v1.3.6 + libmatroska v1.4.9

Видео
Идентификатор : 1
Формат : AVC
Формат/Информация : Advanced Video Codec
Профиль формата : High@L3.1
Настройки формата : CABAC / 4 Ref Frames
Параметр CABAC формата : Да
Параметр RefFrames формата : 4 кадра
Идентификатор кодека : V_MPEG4/ISO/AVC
Продолжительность : 1 ч. 2 м.
Битрейт : 4500 Кбит/сек
Ширина : 1280 пикселей
Высота : 720 пикселей
Соотношение сторон : 16:9
Режим частоты кадров : Постоянный
Частота кадров : 23,976 (24000/1001) кадра/сек
Цветовое пространство : YUV
Субдискретизация насыщенности : 4:2:0
Битовая глубина : 8 бит
Тип развёртки : Прогрессивная
Бит/(Пиксели*Кадры) : 0.204
Размер потока : 1,95 Гбайт (85%)
Библиотека кодирования : x264 core 130 r2273 b3065e6
Настройки программы : cabac=1 / ref=3 / deblock=1:0:0 / analyse=0x3:0x113 / me=hex / subme=2 / psy=1 / psy_rd=1.00:0.00 / mixed_ref=1 / me_range=16 / chroma_me=1 / trellis=1 / 8x8dct=1 / cqm=0 / deadzone=21,11 / fast_pskip=1 / chroma_qp_offset=0 / threads=24 / lookahead_threads=5 / sliced_threads=0 / nr=0 / decimate=1 / interlaced=0 / bluray_compat=0 / constrained_intra=0 / bframes=2 / b_pyramid=2 / b_adapt=1 / b_bias=0 / direct=1 / weightb=1 / open_gop=0 / weightp=2 / keyint=250 / keyint_min=23 / scenecut=40 / intra_refresh=0 / rc_lookahead=40 / rc=abr / mbtree=1 / bitrate=4500 / ratetol=1.0 / qcomp=0.60 / qpmin=0 / qpmax=69 / qpstep=4 / ip_ratio=1.40 / aq=1:1.00
Default : Да
Forced : Нет

Аудио #1
Идентификатор : 2
Формат : AC-3
Формат/Информация : Audio Coding 3
Коммерческое название : Dolby Digital
Идентификатор кодека : A_AC3
Продолжительность : 1 ч. 2 м.
Вид битрейта : Постоянный
Битрейт : 384 Кбит/сек
Каналы : 6 каналов
Channel layout : L R C LFE Ls Rs
Частота : 48,0 КГц
Частота кадров : 31,250 кадров/сек (1536 SPF)
Битовая глубина : 16 бит
Метод сжатия : С потерями
Размер потока : 173 Мбайт (7%)
Заголовок : IdeaFilm
Язык : Russian
ServiceKind/String : Complete Main
Default : Да
Forced : Нет

Аудио #2
Идентификатор : 3
Формат : AC-3
Формат/Информация : Audio Coding 3
Идентификатор кодека : A_AC3
Продолжительность : 1 ч. 2 м.
Битрейт : 384 Кбит/сек
Каналы : 6 каналов
Частота : 48,0 КГц
Частота кадров : 31,250 кадров/сек (1536 SPF)
Метод сжатия : С потерями
Размер потока : 171 Мбайт (7%)
Язык : English
Default : Нет
Forced : Нет

Писать комментарии на нашем торрент-трекере могут только зарегистрированные пользователи.
Зарегистрируйтесь или авторизируйтесь на сайте.