»
»

Скачать фильм Спасти Ленинград / Блокада. Начало (Алексей Козлов) [2019, военный, драма, BDRip-AVC] - торрент

Торрент можно скачать, нажав синюю кнопку ниже. Фильм доступен на нашем торрент-трекере бесплатно, без регистрации и смс.

Статистика раздачи
991 [ 1.0 MB/s ] ↑ 1.5 GB ↓ 2 [ 99.0 KB/s ]
Автор Сообщение
BLIZNEC W
2019-03-04 18:01
Спасти Ленинград / Блокада. Начало
Спасти Ленинград / Блокада. Начало Формат: BDRip-AVC, MKV, H.264, AC3
Режиссер: Алексей Козлов
Жанр: военный, драма
Продолжительность: 01:37:15
Год выпуска: 2019

В ролях: Мария Мельникова (II), Андрей Удалов, Гела Месхи, Анастасия Мельникова, Валерий Дегтярь, Марина Комарова, Виталий Кищенко, Алексей Шевченков, Борис Щербаков, Инга Оболдина, Есения Раевская, Сергей Жарков, Иван Лырчиков, Вадим Андреев, Владимир Петров (VIII), Владимир Селезнёв (II), Михаил Морозов, Евгения Любимова, Павел Григорьев, Наталья Ткаченко, Мария Капустинская, Степан Яковлев, Елена Зимина, Сергей Семенцов, Роман Кочержевский, Радик Галиуллин, Николай Горшков, Артём Кузьмин (II), Любовь Лушечкина, Наталья Муравьевская, Валерия Ледовских, Елизавета Жарикова, Елизавета Карикова, Екатерина Евтихова, Евгения Лыкова, Владлена Осичкина, Евгения Кузнецова (IV), Дмитрий Гирев, Артём Яковлев, Даниил Кокин, Александр Конев, Константин Юдаев, Арсений Александров, Евгений Карпов, Дмитрий Лебедев (II), Артур Харитоненко, Сергей Сафронов, Наталья Шостак, Сергей Соболев, Олег Попов (II), Татьяна Рябоконь, Иннокентий Граб, Андрей Хитрин, Павел Дружинин, Виталий Такс, Алла Еминцева, Дмитрий Гудим, Иван Забашта, Максим Метельников, Алексей Романович, Сергей Бледных, Владимир Заморин, Илья Божко, Ярослав Соколов, Артём Клочнев, Никита Вахрушин, Артур Журавлев, Данила Пестриков, Михаил Титоренко, Андрей Богданов (V)

Описание: Сентябрь 1941 года. Юные влюбленные Костя и Настя волею обстоятельств оказываются на барже, которая должна вывезти людей из блокадного Ленинграда. Ночью судно попадает в шторм и терпит бедствие, на месте трагедии первыми оказываются вовсе не спасатели, а вражеские самолеты. История, основанная на реальных событиях, положивших начало великой «Дороге Жизни».

Рейтинг и доп. информация:


Видео: 1024x428, (2,40:1), 24,000 fps, AVC MPEG-4 (x264), High@L4.1 ~ 1819 kbps , 0.173 bit/pixel
Аудио: 48 kHz, AC3 Dolby Digital, 3/2 (L,C,R,l,r) + LFE ch, ~448.00 kbps avg [Лицензия]

Доп. инфо: | Исх. BluRay Disc | Flucht.aus.Leningrad.2019.DUAL.COMPLETE.BLURAY-UNiVERSUM
MediaInfo
Общее
Уникальный идентификатор : 26814561416152999734980617018000381075 (0x142C4BF311D238350641E01005B59493)
Полное имя : F:OlLanDGroupFlucht.aus.Leningrad.2019.BDRip(AVC).OlLanDGroup.mkv
Формат : Matroska
Версия формата : Version 4 / Version 2
Размер файла : 1,54 Гбайт
Продолжительность : 1 ч. 37 м.
Общий поток : 2268 Кбит/сек
Название фильма : Flucht.aus.Leningrad.2019 #TorpedoUK#
Дата кодирования : UTC 2019-07-02 02:54:54
Программа кодирования : mkvmerge v29.0.0 ('Like It Or Not') 64-bit
Библиотека кодирования : libebml v1.3.6 + libmatroska v1.4.9

Видео
Идентификатор : 1
Формат : AVC
Формат/Информация : Advanced Video Codec
Профиль формата : High@L4.1
Параметр CABAC формата : Да
Параметр ReFrames формата : 10 кадров
Идентификатор кодека : V_MPEG4/ISO/AVC
Продолжительность : 1 ч. 37 м.
Битрейт : 1819 Кбит/сек
Ширина : 1024 пикселя
Высота : 428 пикселей
Соотношение сторон : 2,40:1
Режим частоты кадров : Постоянный
Частота кадров : 24,000 кадра/сек
Цветовое пространство : YUV
Субдискретизация насыщенности : 4:2:0
Битовая глубина : 8 бит
Тип развёртки : Прогрессивная
Бит/(Пиксели*Кадры) : 0.173
Размер потока : 1,24 Гбайт (80%)
Библиотека кодирования : x264 core 146 r2538 121396c
Настройки программы : cabac=1 / ref=10 / deblock=1:-3:-3 / analyse=0x3:0x113 / me=umh / subme=11 / psy=1 / psy_rd=1.00:0.03 / mixed_ref=1 / me_range=48 / chroma_me=1 / trellis=2 / 8x8dct=1 / cqm=0 / deadzone=21,11 / fast_pskip=1 / chroma_qp_offset=-3 / threads=6 / lookahead_threads=1 / sliced_threads=0 / nr=0 / decimate=1 / interlaced=0 / bluray_compat=0 / constrained_intra=0 / bframes=11 / b_pyramid=2 / b_adapt=2 / b_bias=0 / direct=3 / weightb=1 / open_gop=0 / weightp=2 / keyint=240 / keyint_min=23 / scenecut=40 / intra_refresh=0 / rc_lookahead=40 / rc=2pass / mbtree=0 / bitrate=1819 / ratetol=1.0 / qcomp=0.60 / qpmin=0 / qpmax=69 / qpstep=4 / cplxblur=20.0 / qblur=0.5 / vbv_maxrate=50000 / vbv_bufsize=62500 / nal_hrd=none / filler=0 / ip_ratio=1.40 / pb_ratio=1.30 / aq=1:1.00
Язык : English
Default : Да
Forced : Нет

Аудио
Идентификатор : 2
Формат : AC-3
Формат/Информация : Audio Coding 3
Расширение режима : CM (complete main)
Параметр Endianness формата : Big
Идентификатор кодека : A_AC3
Продолжительность : 1 ч. 37 м.
Вид битрейта : Постоянный
Битрейт : 448 Кбит/сек
Каналы : 6 каналов
Расположение каналов : Front: L C R, Side: L R, LFE
Частота : 48,0 КГц
Частота кадров : 31,250 кадров/сек (1536 spf)
Битовая глубина : 16 бит
Метод сжатия : С потерями
Размер потока : 312 Мбайт (20%)
Заголовок : [License]
Язык : Russian
Default : Да
Forced : Нет

Текст #1
Идентификатор : 3
Формат : UTF-8
Идентификатор кодека : S_TEXT/UTF8
Идентификатор кодека/Информация : UTF-8 Plain Text
Продолжительность : 9 с. 661 мс.
Битрейт : 245 бит/сек
Count of elements : 2
Размер потока : 296 байт (0%)
Заголовок : Forced
Язык : Russian
Default : Да
Forced : Нет

Текст #2
Идентификатор : 4
Формат : UTF-8
Идентификатор кодека : S_TEXT/UTF8
Идентификатор кодека/Информация : UTF-8 Plain Text
Продолжительность : 1 ч. 29 м.
Битрейт : 81 бит/сек
Count of elements : 1072
Размер потока : 53,4 Кбайт (0%)
Заголовок : Full
Язык : Russian
Default : Нет
Forced : Нет

Меню
00:00:00.000 : :Глава 01
00:03:01.750 : :Глава 02
00:09:04.625 : :Глава 03
00:15:37.333 : :Глава 04
00:22:33.750 : :Глава 05
00:30:36.625 : :Глава 06
00:34:29.833 : :Глава 07
00:38:24.541 : :Глава 08
00:43:42.250 : :Глава 09
00:48:45.916 : :Глава 10
00:53:19.875 : :Глава 11
00:58:40.916 : :Глава 12
01:07:26.041 : :Глава 13
01:13:26.750 : :Глава 14
01:18:02.541 : :Глава 15
01:22:38.416 : :Глава 16
01:26:42.583 : :Глава 17
01:30:54.708 : :Глава 18

Информация о торренте:
Размер содержимого: 1.5 GB
Скачан: 602 раза
Статус: Проверен
Зарегистрирован на трекере: 2019-07-02 06:51
Скачать торрент


Поддержи раздачу — поставь лайк:
BLIZNEC W
2019-07-02 06:59
Интересного и приятного просмотра!!!

Мои раздачи
Писать комментарии на нашем торрент-трекере могут только зарегистрированные пользователи.
Зарегистрируйтесь или авторизируйтесь на сайте.