»
»

Скачать сериал Вдова, 1 сезон 1-8 серия из 8 / The Widow [IdeaFilm] (Оливер Блэкберн, Сэмюэл Донован) [2019, триллер, WEB-DLRip, Р] - торрент

Скачать через торрент сериал вы можете, нажав на синюю кнопку. Сериал доступен на нашем торрент-трекере бесплатно, без регистрации и смс.

Статистика раздачи
36 [ 1.7 MB/s ] ↑ 5.6 GB ↓ 3 [ 0 b/s ]
Автор Сообщение
D4IVER
2019-03-03 21:17
Вдова / The Widow
Вдова, 1 сезон 1-8 серия из 8 / The Widow [IdeaFilm]
Перевод: Профессиональный (многоголосый, закадровый) IdeaFilm
Субтитры: отсутствуют
Формат: WEB-DLRip, AVI, XviD, AC3
Страна: Великобритания
Режиссер: Оливер Блэкберн, Сэмюэл Донован
Жанр: Триллер
Всего серий: 8
Продолжительность: 8 x ~ 00:50:00
Год выпуска: 2019

В ролях: Кейт Бекинсейл, Алекс Кингстон, Бабс Олусанмокун, Чарльз Дэнс, Оулавюр Дарри Оулафссон, Джеки Идо, Барт Фаш, Мэттью Ле Невез

Описание: Муж Джоржии погиб в результате авиакатастрофы. Ну, или так все считают, ведь его тела среди погибших не обнаружилось. Постепенно женщина понимает, что всё гораздо сложнее, чем кажется на первый взгляд, и отправляется в опасное путешествие на поиски пропавшего супруга.

[imdb=http://www.imdb.com/title/tt7459986/]

Видео: 720x360 (2.00:1), 25.000 fps, XviD MPEG-4 ~1781 kbps avg, 0.275 bit/pixel
Аудио #1 Rus: 48 kHz, AC3 Dolby Digital, 3/2 (L,C,R,l,r) + LFE ch, ~384 kbps

Внимание, присутствует реклама!

MediaInfo

Video
ID : 0
Format : MPEG-4 Visual
Format profile : Advanced Simple@L5
Format settings : BVOP2
Format settings, BVOP : 2
Format settings, QPel : No
Format settings, GMC : No warppoints
Format settings, Matrix : Default (H.263)
Muxing mode : Packed bitstream
Codec ID : XVID
Codec ID/Hint : XviD
Duration : 49 min 57 s
Bit rate : 1 781 kb/s
Width : 720 pixels
Height : 360 pixels
Display aspect ratio : 2.000
Frame rate : 25.000 FPS
Color space : YUV
Chroma subsampling : 4:2:0
Bit depth : 8 bits
Scan type : Progressive
Compression mode : Lossy
Bits/(Pixel*Frame) : 0.275
Stream size : 636 MiB (82%)
Writing library : XviD 67

Audio
ID : 1
Format : AC-3
Format/Info : Audio Coding 3
Commercial name : Dolby Digital
Codec ID : 2000
Duration : 49 min 56 s
Bit rate mode : Constant
Bit rate : 384 kb/s
Channel(s) : 6 channels
Channel positions : Front: L C R, Side: L R, LFE
Sampling rate : 48.0 kHz
Frame rate : 31.250 FPS (1536 SPF)
Bit depth : 16 bits
Compression mode : Lossy
Stream size : 137 MiB (18%)
Alignment : Aligned on interleaves
Interleave, duration : 40 ms (1.00 video frame)
Interleave, preload duratio : 512 ms
Service kind : Complete Main

Информация о торренте:
Размер содержимого: 5.6 GB
Скачан: 356 раз
Статус: Проверен
Зарегистрирован на трекере: 2019-03-03 20:17
Скачать торрент


Поддержи раздачу — поставь лайк:
kcino
2019-03-05 20:37
всё гораздо сложнее, чем кажется на первый взгляд - описание заинтириговало! качну!
MagicianT
2019-03-14 01:04
kcino написал(а):
всё гораздо сложнее, чем кажется на первый взгляд - описание заинтириговало! качну!

И как там? Негры сьели её мужа?
Писать комментарии на нашем торрент-трекере могут только зарегистрированные пользователи.
Зарегистрируйтесь или авторизируйтесь на сайте.