»
»

Скачать фильм Нация убийц / Assassination Nation (Сэм Левинсон) [2018, триллер, драма, комедия, криминал, BDRemux 1080p] DUB [iTunes]+MVO - торрент

Скачать бесплатный торрент фильм. Фильм доступен на нашем торрент-трекере бесплатно, без регистрации и смс.

Статистика раздачи
4 [ 485.0 KB/s ] ↑ 25.6 GB ↓ 1 [ 0 b/s ]
Автор Сообщение
rainbow.n
2019-03-03 00:13
Нация убийц / Assassination Nation
Нация убийц / Assassination Nation Перевод: Профессиональный (полное дублирование) [iTunes]
Cубтитры: английские
Формат: BDRemux, MKV, H.264, AC3/DTS-HD (MA)
Страна: США
Режиссер: Сэм Левинсон
Жанр: триллер, драма, комедия, криминал
Продолжительность: 01:47:59
Год выпуска: 2018

В ролях: Одесса Янг, Хари Неф, Сьюки Уотерхаус, Абра, Колман Доминго, Билл Скарсгард, Джоэл МакХэйл, Аника Нони Роуз, Белла Торн, Мод Апатоу

Описание: Селфи, эмоджи, снэпчаты и секстинг — вот в чем хороши старшеклассница Лили и три её лучшие подруги. Гормоны бурлят, и девушки живут в мире вечеринок, интрижек, обсуждения парней и модных трендов. Когда неизвестный хакер выкладывает в открытый доступ личные фотографии и переписку мэра их родного города Салема, выясняется, что ярый поборник семейных ценностей любит нетрадиционные развлечения. На пресс-конференции посрамлённый мэр пускает себе пулю в лоб, но на этом безумие в Салеме не заканчивается — неугомонный хакер выставляет напоказ подноготную директора местной школы, а затем и почти всех жителей города.

5,9/10 6 819

Видео: 1920x1080p (16:9), 23,976 fps, AVC MPEG-4 (x264), High@L4.1 ~ 29,4 Mbit/s, 0.592 bit/pixel

Аудио#1: Русский: 48 kHz, AC3, 3/2 (L,C,R,l,r) + LFE ch, ~384 kbps avg [Профессиональный (полное дублирование) iTunes]
Аудио#2: Русский: 48 kHz, AC3, 2/0 (L,R) ch, ~192 kbps avg [Любительский (многоголосый, закадровый) HDRezka Studio]
Аудио#3: Английский: 48 kHz, DTS-HD Master Audio, 8 ch, ~ 3939 kbps, 24-bit (DTS Core: 5.1 ch, 48 kHz, 1509 kbps, 24-bit) [Оригинал]
MI
Общее
Уникальный идентификатор : 189396706311957069377278611299175927892 (0x8E7C7A92FE7A881C85EBF903D62E9054)
Полное имя : D:\Assassination.Nation.2018.Remux.mkv
Формат : Matroska
Версия формата : Version 4 / Version 2
Размер файла : 25,6 Гбайт
Продолжительность : 1 ч. 47 м.
Режим общего битрейта : Переменный
Общий поток : 33,9 Мбит/сек
Дата кодирования : UTC 2019-03-02 18:16:12
Программа кодирования : mkvmerge v7.1.0 ('Good Love') 32bit built on Jul 27 2014 12:59:18
Библиотека кодирования : libebml v1.3.0 + libmatroska v1.4.1

Видео
Идентификатор : 1
Формат : AVC
Формат/Информация : Advanced Video Codec
Профиль формата : High@L4.1
Параметр CABAC формата : Да
Параметр RefFrames формата : 4 кадра
Идентификатор кодека : V_MPEG4/ISO/AVC
Продолжительность : 1 ч. 47 м.
Вид битрейта : Переменный
Битрейт : 29,4 Мбит/сек
Максимальный битрейт : 36,0 Мбит/сек
Ширина : 1920 пикселей
Высота : 1080 пикселей
Соотношение сторон : 16:9
Режим частоты кадров : Постоянный
Частота кадров : 23,976 (24000/1001) кадра/сек
Цветовое пространство : YUV
Субдискретизация насыщенности : 4:2:0
Битовая глубина : 8 бит
Тип развёртки : Прогрессивная
Бит/(Пиксели*Кадры) : 0.592
Размер потока : 22,2 Гбайт (87%)
Язык : English
Default : Да
Forced : Нет

Аудио #1
Идентификатор : 2
Формат : AC-3
Формат/Информация : Audio Coding 3
Параметр Endianness формата : Big
Идентификатор кодека : A_AC3
Продолжительность : 1 ч. 47 м.
Вид битрейта : Постоянный
Битрейт : 384 Кбит/сек
Каналы : 6 каналов
Расположение каналов : Front: L C R, Side: L R, LFE
Частота : 48,0 КГц
Частота кадров : 31,250 кадров/сек (1536 SPF)
Битовая глубина : 16 бит
Метод сжатия : С потерями
Размер потока : 297 Мбайт (1%)
Заголовок : DUB
Язык : Russian
ServiceKind/String : Complete Main
Default : Да
Forced : Да

Аудио #2
Идентификатор : 3
Формат : AC-3
Формат/Информация : Audio Coding 3
Параметр Endianness формата : Big
Идентификатор кодека : A_AC3
Продолжительность : 1 ч. 47 м.
Вид битрейта : Постоянный
Битрейт : 192 Кбит/сек
Каналы : 2 канала
Расположение каналов : Front: L R
Частота : 48,0 КГц
Частота кадров : 31,250 кадров/сек (1536 SPF)
Битовая глубина : 16 бит
Метод сжатия : С потерями
Размер потока : 148 Мбайт (1%)
Заголовок : MVO
Язык : Russian
ServiceKind/String : Complete Main
Default : Нет
Forced : Нет

Аудио #3
Идентификатор : 4
Формат : DTS
Формат/Информация : Digital Theater Systems
Профиль формата : MA / Core
Режим : 16
Параметр Endianness формата : Big
Идентификатор кодека : A_DTS
Продолжительность : 1 ч. 47 м.
Вид битрейта : Переменный / Постоянный
Битрейт : 3939 Кбит/сек / 1509 Кбит/сек
Каналы : 6 каналов
Расположение каналов : Front: L C R, Side: L R, LFE
Частота : 48,0 КГц
Частота кадров : 93,750 кадра/сек (512 SPF)
Битовая глубина : 24 бит
Метод сжатия : Без потерь / Lossy
Размер потока : 2,97 Гбайт (12%)
Язык : English
Default : Нет
Forced : Нет

Текст #1
Идентификатор : 5
Формат : UTF-8
Идентификатор кодека : S_TEXT/UTF8
Идентификатор кодека/Информация : UTF-8 Plain Text
Продолжительность : 1 ч. 38 м.
Битрейт : 57 бит/сек
ElementCount : 1283
Размер потока : 41,5 Кбайт (0%)
Заголовок : Full
Язык : English
Default : Нет
Forced : Нет

Текст #2
Идентификатор : 6
Формат : UTF-8
Идентификатор кодека : S_TEXT/UTF8
Идентификатор кодека/Информация : UTF-8 Plain Text
Продолжительность : 1 ч. 46 м.
Битрейт : 66 бит/сек
ElementCount : 1583
Размер потока : 51,6 Кбайт (0%)
Заголовок : SDH
Язык : English
Default : Нет
Forced : Нет

Меню
00:00:00.000 : :Chapter 01
00:22:06.366 : :Chapter 02
00:43:51.712 : :Chapter 03
01:01:11.334 : :Chapter 04
01:16:31.169 : :Chapter 05
01:21:47.694 : :Chapter 06
01:28:27.135 : :Chapter 07
01:39:32.883 : :Chapter 08
01:47:58.513 : :Chapter 09


Информация о торренте:
Размер содержимого: 25.6 GB
Скачан: 227 раз
Статус: Проверен
Зарегистрирован на трекере: 2019-03-02 23:13
Скачать торрент


Поддержи раздачу — поставь лайк:

Писать комментарии на нашем торрент-трекере могут только зарегистрированные пользователи.
Зарегистрируйтесь или авторизируйтесь на сайте.