»
»

Скачать мультфильм Тигтон, 1 сезон 1-2 серия из 11 / Tigtone (Фредди Кристи) [2019, ужасы, фэнтези, комедия, приключения, WEB-DLRip 1080p] DVO - торрент

Нажмите на синюю кнопку ниже, чтобы скачать мультфильм бесплатно через торрент. Мультфильм доступен на нашем торрент-трекере бесплатно, без регистрации и смс.

Статистика раздачи
4 [ 0 b/s ] ↑ 1.4 GB ↓ 0 [ 0 b/s ]
Автор Сообщение
NewSation
2019-03-02 23:26
Тигтон / Tigtone
Тигтон, 1 сезон 1-2 серия из 11 / Tigtone Перевод: Любительский (двухголосый) [NewStation], cубтитры: английские
Формат: WEB-DLRip 1080p, MKV, H.264, AC3
Страна: США
Режиссер: Фредди Кристи
Жанр: ужасы, фэнтези, комедия, приключения
Продолжительность: 1 x ~ 00:11:00
Год выпуска: 2019

В ролях: Деби Дерриберри, Блейк Андерсон, Билл Корбетт, Люси Дэвис, Джон Ди Маджио, Гари Энтони Уильямс, Трэйс Балу, Джеффри Комбс, Том Кенни

Описание: Cага о герое, зависимом от квестов, который прокладывает свой путь через сатирическую фэнтезийную вселенную с мелодраматической свирепостью, всегда подчиняясь букве закона, но не духу.

[imdb=https://www.imdb.com/title/tt8413062/?ref_=ttfc_fc_tt]

Видео: 1920x1080 (16:9), 23,976 fps, AVC (х264) Main@L4.1, ~8332 kbps, 0.168 bit/pixel
Аудио 1: Русский: 48 kHz, AC3, (L,R) 2 ch, ~256 kbps
Аудио 2: Английский: 44 kHz, AAC, (L,R) 2 ch, ~126 kbps

Реклама: Отсутствует

MediaInfo
Общее
Уникальный идентификатор : 88777965781325906786677883905286647178 (0x42CA03A732F0E4CC595C7C0A3DD8AD8A)
Полное имя : F:\NewStation\Tigtone.S01.WEB-DLRip.1080p.NewStation\Tigtone.S01E00.WEB-DL.1080p.NewStation.mkv
Формат : Matroska
Версия формата : Version 4 / Version 2
Размер файла : 722 Мбайт
Продолжительность : 11 м. 35 с.
Общий поток : 8715 Кбит/сек
Дата кодирования : UTC 2019-03-02 10:16:35
Программа кодирования : mkvmerge v28.1.0 ('Morning Child') 64-bit
Библиотека кодирования : libebml v1.3.6 + libmatroska v1.4.9

Видео
Идентификатор : 1
Формат : AVC
Формат/Информация : Advanced Video Codec
Профиль формата : Main@L4.1
Настройки формата : CABAC / 4 Ref Frames
Параметр CABAC формата : Да
Параметр RefFrames формата : 4 кадра
Идентификатор кодека : V_MPEG4/ISO/AVC
Продолжительность : 11 м. 35 с.
Битрейт : 8332 Кбит/сек
Ширина : 1920 пикселей
Высота : 1080 пикселей
Соотношение сторон : 16:9
Режим частоты кадров : Постоянный
Частота кадров : 23,976 (24000/1001) кадра/сек
Стандарт вещания : NTSC
Цветовое пространство : YUV
Субдискретизация насыщенности : 4:2:0
Битовая глубина : 8 бит
Тип развёртки : Прогрессивная
Бит/(Пиксели*Кадры) : 0.168
Размер потока : 690 Мбайт (96%)
Язык : English
Default : Да
Forced : Нет
Цветовой диапазон : Limited
Основные цвета : BT.709
Характеристики трансфера : BT.709
Коэффициенты матрицы : BT.709

Аудио #1
Идентификатор : 2
Формат : AC-3
Формат/Информация : Audio Coding 3
Идентификатор кодека : A_AC3
Продолжительность : 11 м. 35 с.
Вид битрейта : Постоянный
Битрейт : 256 Кбит/сек
Каналы : 2 канала
Расположение каналов : Front: L R
Частота : 48,0 КГц
Частота кадров : 31,250 кадров/сек (1536 SPF)
Битовая глубина : 16 бит
Метод сжатия : С потерями
Размер потока : 21,2 Мбайт (3%)
Заголовок : NewStation
Язык : Russian
ServiceKind/String : Complete Main
Default : Да
Forced : Нет

Аудио #2
Идентификатор : 3
Формат : AAC
Формат/Информация : Advanced Audio Codec
Профиль формата : LC
Идентификатор кодека : A_AAC-2
Продолжительность : 11 м. 35 с.
Битрейт : 126 Кбит/сек
Каналы : 2 канала
Расположение каналов : Front: L R
Частота : 44,1 КГц
Частота кадров : 43,066 кадра/сек (1024 SPF)
Метод сжатия : С потерями
Размер потока : 10,4 Мбайт (1%)
Заголовок : Original
Default : Нет
Forced : Нет

Текст
Идентификатор : 4
Формат : UTF-8
Идентификатор кодека : S_TEXT/UTF8
Идентификатор кодека/Информация : UTF-8 Plain Text
Продолжительность : 11 м. 23 с.
Битрейт : 85 бит/сек
ElementCount : 269
Размер потока : 7,17 Кбайт (0%)
Заголовок : Eng
Язык : English
Default : Нет
Forced : Нет
Внимание! Раздача ведётся путём добавления новых серий
Внимание! Раздача ведётся путём добавления новых серий; при каждом добавлении создаётся новый торрент. Чтобы начать докачку новой серии, пользователям необходимо сделать следующее:
(1) остановить скачивание,
(2) удалить старый торрент у себя из клиента (старые серии удалять не надо),
(3) скачать новый торрент и запустить его у себя в клиенте вместо старого, при этом указать клиенту путь в старую папку куда и должно происходить скачивание новых серий.

Ваш клиент при этом должен произвести хеширование (проверку) старой папки (если не производит сам - помогите ему сделать это), и будет докачивать только те серии которых у вас ещё нет. Старые серии при этом не удаляются, а продолжают раздаваться!

Eсли вы уже удалили старые серии, то предотвратить повторную закачку старых серий можно, отжав галочку в соответствующих местах при запуске нового торрента. По возможности, желательно не удалять старые серии как можно дольше, чтобы релизёр не столько продолжал раздавать старые серии, а смог сконцентрироваться на новых.


Информация о торренте:
Размер содержимого: 1.4 GB
Скачан: 327 раз
Статус: Обновляемая раздача
Зарегистрирован на трекере: 2019-03-07 00:33
Скачать торрент


Поддержи раздачу — поставь лайк:
E-mail:
* Это обновляемая раздача и мы можем вас информировать об обновлении торрента в ней.

Писать комментарии на нашем торрент-трекере могут только зарегистрированные пользователи.
Зарегистрируйтесь или авторизируйтесь на сайте.