»
»

Скачать мультфильм Принц-дракон, 2 сезон 1-9 серия из 9 / The Dragon Prince (Джастин Ричмонд) [2019, Мультсериал, фантастика, боевик, приключения, семейный, WEBRip 1080p] MVO - торрент

Скачать бесплатный торрент мультфильм. Мультфильм доступен на нашем торрент-трекере бесплатно, без регистрации и смс.

Статистика раздачи
0 [ 0 b/s ] ↑ 12.7 GB ↓ 0 [ 0 b/s ]
Автор Сообщение
IdeaFilm
2019-03-02 22:33
Принц-дракон / The Dragon Prince
Принц-дракон, 2 сезон 1-9 серия из 9 / The Dragon Prince Перевод: Профессиональный (многоголосый, закадровый) IdeaFilm
Субтитры: отсутствуют
Формат: WEBRip, MKV, h.264, AC3
Страна: США
Режиссер: Джастин Ричмонд
Жанр: Мультсериал, фантастика, боевик, приключения, семейный
Всего серий: 9
Продолжительность: 9 х ~00:25:00
Год выпуска: 2019

В ролях: Паула Берроуз, Джек Де Сена, Саша Роджен

Описание: Сюжет истории пойдет о двух принцах, которые объединят свои силы с эльфом, которому было поручено убить их. Вместе они начнут своё удивительное путешествие, чтобы улучшить мир людей. В мультсериале вы увидите много экшена, сражений, невероятные приключения героев мультика, а также драконов.

Рейтинг на: [imdb=http://www.imdb.com/title/tt8688814/]

Видео: 1920x1080p (16/9), 23,976 fps, AVC (х264), Main@L4.1, ~6664 kbps avg, 0.134 bit/pixel
Аудио #1 Rus: :48 kHz, AC3 Dolby Digital, 3/2 (L,C,R,l,r) + LFE ch, ~384 kbps
Аудио #1 Eng: :48 kHz, AC3 Dolby Digital, 3/2 (L,C,R,l,r) + LFE ch, ~384 kbps

Внимание, присутствует реклама!

MediaInfo

Общее
Уникальный идентификатор : 132313534849215410295795230690732547608 (0x638AA8EDFC7E60995A7211B123161E18)
Полное имя : D:\IDEAFILM\The.Dragon.Prince.S02.WEBRip.1080p\The.Dragon.Prince.S02E01.WEBRip.1080p.IdeaFilm.mkv
Формат : Matroska
Версия формата : Version 4
Размер файла : 1,39 Гбайт
Продолжительность : 26 м. 44 с.
Общий поток : 7423 Кбит/сек
Дата кодирования : UTC 2019-03-02 12:05:55
Программа кодирования : mkvmerge v25.0.0 ('Prog Noir') 64-bit
Библиотека кодирования : libebml v1.3.6 + libmatroska v1.4.9

Видео
Идентификатор : 1
Формат : AVC
Формат/Информация : Advanced Video Codec
Профиль формата : Main@L4.1
Настройки формата : CABAC / 4 Ref Frames
Параметр CABAC формата : Да
Параметр RefFrames формата : 4 кадра
Идентификатор кодека : V_MPEG4/ISO/AVC
Продолжительность : 26 м. 44 с.
Битрейт : 6664 Кбит/сек
Ширина : 1920 пикселей
Высота : 1080 пикселей
Соотношение сторон : 16:9
Режим частоты кадров : Постоянный
Частота кадров : 23,976 (24000/1001) кадра/сек
Цветовое пространство : YUV
Субдискретизация насыщенности : 4:2:0
Битовая глубина : 8 бит
Тип развёртки : Прогрессивная
Бит/(Пиксели*Кадры) : 0.134
Размер потока : 1,24 Гбайт (90%)
Язык : English
Default : Да
Forced : Нет
Цветовой диапазон : Limited
Основные цвета : BT.709
Характеристики трансфера : BT.709
Коэффициенты матрицы : BT.709

Аудио #1
Идентификатор : 2
Формат : AC-3
Формат/Информация : Audio Coding 3
Коммерческое название : Dolby Digital
Идентификатор кодека : A_AC3
Продолжительность : 26 м. 44 с.
Вид битрейта : Постоянный
Битрейт : 384 Кбит/сек
Каналы : 6 каналов
Channel layout : L R C LFE Ls Rs
Частота : 48,0 КГц
Частота кадров : 31,250 кадров/сек (1536 SPF)
Битовая глубина : 16 бит
Метод сжатия : С потерями
Размер потока : 73,5 Мбайт (5%)
Заголовок : IdeaFilm
Язык : Russian
ServiceKind/String : Complete Main
Default : Да
Forced : Нет

Аудио #2
Идентификатор : 3
Формат : AC-3
Формат/Информация : Audio Coding 3
Идентификатор кодека : A_AC3
Продолжительность : 26 м. 4 с.
Битрейт : 384 Кбит/сек
Каналы : 6 каналов
Частота : 48,0 КГц
Частота кадров : 31,250 кадров/сек (1536 SPF)
Метод сжатия : С потерями
Размер потока : 71,6 Мбайт (5%)
Язык : English
Default : Нет
Forced : Нет

Информация о торренте:
Размер содержимого: 12.7 GB
Скачан: 266 раз
Статус: Временная раздача
Зарегистрирован на трекере: 2019-03-02 21:33
Скачать торрент


Поддержи раздачу — поставь лайк:
Писать комментарии на нашем торрент-трекере могут только зарегистрированные пользователи.
Зарегистрируйтесь или авторизируйтесь на сайте.