»
»

Скачать прикол Уральские пельмени - Азбука Уральских пельменей - З (01.03.2019) (Анастастия Ширина, Леонид Коновалов ) / [2019, ТВ-шоу, юмор, сатира, развлекательный, WEBRip 1080p] - торрент

Бесплатные торренты всегда на нашем сайте и в хорошем качестве! Прикол доступен на нашем торрент-трекере бесплатно, без регистрации и смс.

Статистика раздачи
4 [ 2.0 KB/s ] ↑ 884.8 MB ↓ 1 [ 0 b/s ]
Автор Сообщение
Lacky1907
2019-03-02 17:30
Уральские пельмени - Азбука Уральских пельменей - З (01.03.2019)
Уральские пельмени - Азбука Уральских пельменей - З
Перевод: Отсутствует, субтитры: отсутствуют
Формат: WEBRip 1080p, MKV, H.264, AC3
Страна: Россия
Режиссер: Анастастия Ширина, Леонид Коновалов
Жанр: ТВ-шоу, юмор, сатира, развлекательный
Продолжительность: 01:12:13
Год выпуска: 2019

В ролях: Дмитрий Брекоткин, Сергей Ершов, Сергей Исаев, Сергей Калугин, Вячеслав Мясников, Александр Попов, Андрей Рожков, Дмитрий Соколов (V), Максим Ярица, Юлия Михалкова, Илана Юрьева, Ксения Корнева.

Описание: Легендарные чемпионы КВН, всеми любимые посланники юмора в уморительном шоу! Комедийная программа “Уральские пельмени” - передача, созданная неповторимой командой по производству юмора, которая прошла испытание временем и имеет целую армию поклонников. Своими выступлениями “Уральские пельмени” установили очень высокую планку комедийного шоу и не перестают удивлять зрителей великолепным, всегда свежим, ярким и необычным юмором, который нельзя спутать ни с чем. Смешные номера, искрометные шутки и мощный заряд позитива никого не оставят равнодушным.

Видео: 1920x1080 (16:9), 25,000 fps, AVC (х264), High@L4, ~4420 kbps avg, 0.085 bit/pixel
Аудио: 48 kHz, AC3 Dolby Digital, 2/0 (L,R) ch, ~192 kbps

MediaInfo

Общее
Уникальный идентификатор : 78226200729158212394258451786990805571 (0x3AD9D1784EA930B5F3E9A9B3ED8EE243)
Полное имя : I:\Uralskie.pelmeni.Azbuka.Uralskih.pelmenej.3.2019.1080p.mkv
Формат : Matroska
Версия формата : Version 4 / Version 2
Размер файла : 2,36 Гбайт
Продолжительность : 1 ч. 11 м.
Общий поток : 4706 Кбит/сек
Программа кодирования : Lavf57.71.100
Библиотека кодирования : Lavf57.71.100
ErrorDetectionType : Per level 1

Видео
Идентификатор : 1
Формат : AVC
Формат/Информация : Advanced Video Codec
Профиль формата : High@L4
Параметр CABAC формата : Да
Параметр ReFrames формата : 3 кадра
Идентификатор кодека : V_MPEG4/ISO/AVC
Продолжительность : 1 ч. 11 м.
Битрейт : 4420 Кбит/сек
Ширина : 1920 пикселей
Высота : 1080 пикселей
Соотношение сторон : 16:9
Режим частоты кадров : Постоянный
Частота кадров : 25,000 кадров/сек
Цветовое пространство : YUV
Субдискретизация насыщенности : 4:2:0
Битовая глубина : 8 бит
Тип развёртки : Прогрессивная
Бит/(Пиксели*Кадры) : 0.085
Размер потока : 2,21 Гбайт (94%)
Default : Да
Forced : Нет
Цветовой диапазон : Limited
Основные цвета : BT.709
Характеристики трансфера : BT.709
Коэффициенты матрицы : BT.709
DURATION : 01:11:43.880000000
HANDLER_NAME : VideoHandler

Аудио
Идентификатор : 2
Формат : AC-3
Формат/Информация : Audio Coding 3
Параметр Endianness формата : Big
Идентификатор кодека : A_AC3
Продолжительность : 1 ч. 11 м.
Вид битрейта : Постоянный
Битрейт : 192 Кбит/сек
Каналы : 2 канала
Расположение каналов : Front: L R
Частота : 48,0 КГц
Частота кадров : 31,250 кадров/сек (1536 spf)
Битовая глубина : 16 бит
Метод сжатия : С потерями
Размер потока : 98,5 Мбайт (4%)
ServiceKind/String : Complete Main
Default : Да
Forced : Нет
DURATION : 01:11:43.936000000
HANDLER_NAME : SoundHandler


Информация о торренте:
Размер содержимого: 884.8 MB
Скачан: 316 раз
Статус: Проверен
Зарегистрирован на трекере: 2019-03-02 16:30
Скачать торрент


Поддержи раздачу — поставь лайк:
Писать комментарии на нашем торрент-трекере могут только зарегистрированные пользователи.
Зарегистрируйтесь или авторизируйтесь на сайте.