»
»

Скачать прикол Новый Comedy Club. (15 сезон 1-6 выпуски) (ТНТ) / [2019, ТВ-шоу, юмор, WEBRip 1080p] - торрент

Бесплатные торренты всегда на нашем сайте и в хорошем качестве! Прикол доступен на нашем торрент-трекере бесплатно, без регистрации и смс.

Статистика раздачи
363 [ 0 b/s ] ↑ 10.0 GB ↓ 1 [ 0 b/s ]
Автор Сообщение
Lacky1907
2019-03-02 14:16
Новый Comedy Club. (15 сезон: 1-6 выпуски)
Новый Comedy Club.
Перевод: Отсутствует, субтитры: отсутствуют
Формат: WEBRip 1080p, MKV, H.264, AC3
Страна: Россия
Режиссер: ТНТ
Жанр: ТВ-шоу, юмор
Продолжительность: 6 х ~ 00:49:00
Год выпуска: 2019

Описание: Как всегда, Comedy Club собрал все самое смешное, чтобы оставаться самым крутым юмористическим шоу на телевидении. Только самые лучшие номера от резидентов "Сomedy Сlub". Выдержанный юмор, проверенный временем и многомиллионной телевизионной аудиторией. Павел Воля бросает пить, а Тимур Батрутдинов оказывает клиентам интимные услуги. Кроме того в выпуске - лучшие песни от участников грушинского бард-н-блюз фестиваля в Америке, экспериментальный юмор от Гарика Мартиросяна и многое другое. Вы помните, что теперь Новый Comedy Club – больше чем просто шоу на сцене? Камеры готовы? Музыканты готовы? Зрители готовы? Поехали!

Видео: 1920x1080 (16:9), 25 fps, 25,000 fps, AVC (х264), Baseline@L4, ~5000 kbps avg, 0.096 bit/pixel
Аудио: 48 kHz, AC3, 2/0 (L,R) ch, ~192 kbps avg

MediaInfo

Общее
Уникальный идентификатор : 205823683400668269274322044769210911034 (0x9AD8331341053697AC6F2F6059BEC93A)
Полное имя : I:\Comedy Club.S15.WEB-DL.(1080p)25Kuzmich\Comedy Club.S15E01.WEB-DL.1080.25Kuzmich.mkv
Формат : Matroska
Версия формата : Version 2
Размер файла : 1,69 Гбайт
Продолжительность : 46 м. 44 с.
Режим общего битрейта : Постоянный
Общий поток : 5179 Кбит/сек
Дата кодирования : UTC 2019-02-22 18:55:10
Программа кодирования : mkvmerge v4.0.0 ('The Stars were mine') сборка от Jun 6 2010 16:18:42
Библиотека кодирования : libebml v1.0.0 + libmatroska v1.0.0

Видео
Идентификатор : 1
Формат : AVC
Формат/Информация : Advanced Video Codec
Профиль формата : Baseline@L4
Параметр CABAC формата : Нет
Параметр ReFrames формата : 4 кадра
Параметр GOP формата : M=1, N=50
Идентификатор кодека : V_MPEG4/ISO/AVC
Продолжительность : 46 м. 44 с.
Вид битрейта : Постоянный
Битрейт : 5000 Кбит/сек
Ширина : 1920 пикселей
Высота : 1080 пикселей
Соотношение сторон : 16:9
Режим частоты кадров : Постоянный
Частота кадров : 25,000 кадров/сек
Стандарт вещания : PAL
Цветовое пространство : YUV
Субдискретизация насыщенности : 4:2:0
Битовая глубина : 8 бит
Тип развёртки : Прогрессивная
Бит/(Пиксели*Кадры) : 0.096
Размер потока : 1,59 Гбайт (94%)
Язык : Russian
Default : Да
Forced : Нет
Цветовой диапазон : Limited
Основные цвета : BT.709
Характеристики трансфера : BT.709
Коэффициенты матрицы : BT.709

Аудио
Идентификатор : 2
Формат : AC-3
Формат/Информация : Audio Coding 3
Параметр Endianness формата : Big
Идентификатор кодека : A_AC3
Продолжительность : 46 м. 44 с.
Вид битрейта : Постоянный
Битрейт : 192 Кбит/сек
Каналы : 2 канала
Расположение каналов : Front: L R
Частота : 48,0 КГц
Частота кадров : 31,250 кадров/сек (1536 spf)
Битовая глубина : 16 бит
Метод сжатия : С потерями
Размер потока : 64,2 Мбайт (4%)
Язык : Russian
ServiceKind/String : Complete Main
Default : Да
Forced : Нет


Информация о торренте:
Размер содержимого: 10.0 GB
Скачан: 109 раз
Статус: Обновляемая раздача
Зарегистрирован на трекере: 2019-03-31 09:17
Скачать торрент


Поддержи раздачу — поставь лайк:
E-mail:
* Это обновляемая раздача и мы можем вас информировать об обновлении торрента в ней.

Писать комментарии на нашем торрент-трекере могут только зарегистрированные пользователи.
Зарегистрируйтесь или авторизируйтесь на сайте.