»
»

Скачать фильм Ты не сирота (Шухрат Аббасов) / [1962, драма, киноповесть, DVDRip-AVC] - торрент

Нажмите синюю кнопку, чтобы cкачать бесплатно через торрент фильм. Фильм доступен на нашем торрент-трекере бесплатно, без регистрации и смс.

Статистика раздачи
13 [ 67.0 KB/s ] ↑ 1.1 GB ↓ 0 [ 0 b/s ]
Автор Сообщение
BLIZNEC W
2019-03-02 12:48
Ты не сирота
Ты не сирота Формат: DVDRip-AVC, MKV, H.264, AC3
Режиссер: Шухрат Аббасов
Жанр: драма, киноповесть
Продолжительность: 01:15:24
Год выпуска: 1962

В ролях: Лютфи Сарымсакова, Обид Джалилов, Гена Ткаченко, Фима Каминер, Лариса Луппиан, Людмила Поречина, Роберт Атабеков, Абиль Азизов, Женя Артишевский, Валерий Рожаев, Лиля Пенькова, Наташа Митрохина, Наташа Никонова, Нина Иванова (IV), Малика Ахмедова, Петя Колесников, Павел Шахов

Описание: Киноповесть о кузнеце Шоахмеде Шомахмудове и его жене, усыновивших и воспитавших в годы Великой Отечественной войны четырнадцать осиротевших детей разных национальностей... В годы второй мировой войны, когда в Узбекистан стали прибывать эшелоны с эвакуированными детьми из детских домов, известный узбекский поэт Гафур Гулям написал ставшее знаменитым стихотворение "Ты не сирота".

Рейтинг и доп. информация:


Видео: 696->760х570, (4:3), 25 fps, AVC MPEG-4 (x264), High@L4.1 ~ 1874 kbps , 0.189 bit/pixel
Аудио: 48 kHz, АС3, 2/0 (L,R), ~192.00 kbps avg
MediaInfo
Общее
Полное имя : Ty.ne.sirota.1962.DVDRip-AVC_[New-team]_by_AVP_Studio.mkv
Формат : Matroska
Версия формата : Version 2
Размер файла : 1,09 Гбайт
Продолжительность : 1 ч. 15 м.
Общий поток : 2068 Кбит/сек
Дата кодирования : UTC 2019-03-01 11:04:35
Программа кодирования : mkvmerge v6.1.0 ('Old Devil') built on Mar 4 2013 09:10:42
Библиотека кодирования : libebml v1.3.0 + libmatroska v1.4.0

Видео
Идентификатор : 1
Формат : AVC
Формат/Информация : Advanced Video Codec
Профиль формата : High@L4.1
Настройки формата : CABAC / 10 Ref Frames
Параметр CABAC формата : Да
Параметр RefFrames формата : 10 кадров
Идентификатор кодека : V_MPEG4/ISO/AVC
Продолжительность : 1 ч. 15 м.
Битрейт : 1874 Кбит/сек
Ширина : 696 пикселей
Высота : 570 пикселей
Соотношение сторон : 4:3
Режим частоты кадров : Постоянный
Частота кадров : 25,000 кадров/сек
Цветовое пространство : YUV
Субдискретизация насыщенности : 4:2:0
Битовая глубина : 8 бит
Тип развёртки : Прогрессивная
Бит/(Пиксели*Кадры) : 0.189
Размер потока : 989 Мбайт (89%)
Библиотека кодирования : x264 core 157 r2935 545de2f
Настройки программы : cabac=1 / ref=10 / deblock=1:-2:-1 / analyse=0x3:0x113 / me=umh / subme=10 / psy=1 / psy_rd=1.00:0.00 / mixed_ref=1 / me_range=32 / chroma_me=1 / trellis=2 / 8x8dct=1 / cqm=0 / deadzone=21,11 / fast_pskip=1 / chroma_qp_offset=-2 / threads=6 / lookahead_threads=1 / sliced_threads=0 / nr=0 / decimate=0 / interlaced=0 / bluray_compat=0 / constrained_intra=0 / bframes=8 / b_pyramid=2 / b_adapt=2 / b_bias=0 / direct=3 / weightb=1 / open_gop=0 / weightp=2 / keyint=250 / keyint_min=25 / scenecut=40 / intra_refresh=0 / rc=2pass / mbtree=0 / bitrate=1874 / ratetol=1.0 / qcomp=0.60 / qpmin=0 / qpmax=69 / qpstep=4 / cplxblur=20.0 / qblur=0.5 / ip_ratio=1.40 / pb_ratio=1.30 / aq=1:1.00
Default : Да
Forced : Нет

Аудио
Идентификатор : 2
Формат : AC-3
Формат/Информация : Audio Coding 3
Коммерческое название : Dolby Digital
Идентификатор кодека : A_AC3
Продолжительность : 1 ч. 15 м.
Вид битрейта : Постоянный
Битрейт : 192 Кбит/сек
Каналы : 2 канала
Channel layout : L R
Частота : 48,0 КГц
Частота кадров : 31,250 кадров/сек (1536 SPF)
Битовая глубина : 16 бит
Метод сжатия : С потерями
Размер потока : 104 Мбайт (9%)
Default : Да
Forced : Нет

Информация о торренте:
Размер содержимого: 1.1 GB
Скачан: 104 раза
Статус: Проверен
Зарегистрирован на трекере: 2019-03-02 11:48
Скачать торрент


Поддержи раздачу — поставь лайк:
BLIZNEC W
2019-03-02 11:48
Интересного и приятного просмотра!!!

Мои раздачи
Писать комментарии на нашем торрент-трекере могут только зарегистрированные пользователи.
Зарегистрируйтесь или авторизируйтесь на сайте.