»
»

Скачать Ksena A - Films / [Collection] [2007-2011, Erotic, Posing, HDRip 720р.] - торрент

Бесплатные торренты всегда на нашем сайте и в хорошем качестве!

Статистика раздачи
7 [ 488.0 KB/s ] ↑ 2.5 GB ↓ 2 [ 0 b/s ]
Автор Сообщение
Алексей Лобанов
2019-03-02 12:21
Ksena A - Films [Collection]
Ksena A - Films
Перевод: Не требуется, cубтитры: отсутствуют
Формат: HDRip, MKV, H.264, AC3
Страна: Украина
Жанр: Erotic, Posing
Общая продолжительность: 00:56:54 (8 видео)
Год выпуска: 2007-2011

В ролях: Ksena A, Rimma, Polly

Описание: Коллекция всех эротических видео модели Ksena A. Дополнение к раздаче [Ksena A - Collection [2007-2011, Эротическая фотография]

Видео #1-4: 1280x720p (16:9) 25 fps, MPEG4 AVC (x264) High@L3.1, 6000 Kbps avg, 0.217 bit/pixel;
Видео #5: 1280x720p (16:9) 25 fps, MPEG4 AVC (x264) High@L3.1, 6000 Kbps avg, 0.260 bit/pixel;
Видео #6-8: 1280x720p (16:9) 29.970 fps, MPEG4 AVC (x264) High@L3.1, 6000 Kbps avg, 0.217 bit/pixel;
Аудио: 48 kHz, AC3 Dolby Digital, 2/0 (L,R) ch, ~192 kbps avg [во всех видео]

Автор релиза: Релиз:

Фотостудии

FemJoy, Met-Art, MetModels, Showy Beauty
MI (№1-4)
General
Unique ID : 299464541395513899590908421942532796578 (0xE14AC5D34F4CB35768BEC4DD042E70A2)
Complete name : C:\Users\User\Desktop\Ksena A - Films [Collection] [2007-2011].[tfile.ru]\[FemJoy] Ksusha - Corse (Mart 31, 2008)\Ksusha - Corse.HDRip.720p.2008.by.A.L.[tfile.ru].mkv
Format : Matroska
Format version : Version 4 / Version 2
File size : 183 MiB
Duration : 4mn 7s
Overall bit rate : 6 200 Kbps
Writing application : Lavf57.41.100
Writing library : Lavf57.41.100 / Lavf57.41.100
COMPILATION : 0

Video
ID : 1
Format : AVC
Format/Info : Advanced Video Codec
Format profile : High@L3.1
Format settings, CABAC : Yes
Format settings, ReFrames : 4 frames
Codec ID : V_MPEG4/ISO/AVC
Bit rate : 6 000 Kbps
Width : 1 280 pixels
Height : 720 pixels
Display aspect ratio : 16:9
Frame rate mode : Variable
Color space : YUV
Chroma subsampling : 4:2:0
Bit depth : 8 bits
Scan type : Progressive
Writing library : x264 core 148
Encoding settings : cabac=1 / ref=3 / deblock=1:0:0 / analyse=0x3:0x113 / me=hex / subme=7 / psy=1 / psy_rd=1.00:0.00 / mixed_ref=1 / me_range=16 / chroma_me=1 / trellis=1 / 8x8dct=1 / cqm=0 / deadzone=21,11 / fast_pskip=1 / chroma_qp_offset=-2 / threads=6 / lookahead_threads=1 / sliced_threads=0 / nr=0 / decimate=1 / interlaced=0 / bluray_compat=0 / constrained_intra=0 / bframes=3 / b_pyramid=2 / b_adapt=1 / b_bias=0 / direct=1 / weightb=1 / open_gop=0 / weightp=2 / keyint=250 / keyint_min=25 / scenecut=40 / intra_refresh=0 / rc_lookahead=40 / rc=2pass / mbtree=1 / bitrate=6000 / ratetol=1.0 / qcomp=0.60 / qpmin=0 / qpmax=69 / qpstep=4 / cplxblur=20.0 / qblur=0.5 / ip_ratio=1.40 / aq=1:1.00
Default : Yes
Forced : No
DURATION : 00:04:07.925000000
HANDLER_NAME : vide

Audio
ID : 2
Format : AC-3
Format/Info : Audio Coding 3
Mode extension : CM (complete main)
Format settings, Endianness : Big
Codec ID : A_AC3
Duration : 4mn 7s
Bit rate mode : Constant
Bit rate : 192 Kbps
Channel(s) : 2 channels
Channel positions : Front: L R
Sampling rate : 48.0 KHz
Frame rate : 31.250 fps (1536 spf)
Bit depth : 32 bits
Compression mode : Lossy
Stream size : 5.68 MiB (3%)
Writing library : Lavc57.48.101 ac3
Default : Yes
Forced : No
DURATION : 00:04:07.968000000
HANDLER_NAME : soun
MI (№5)
General
Unique ID : 128798801660434694671026144057874963244 (0x60E5BF344EC649EA5FA09C2E697BDB2C)
Complete name : C:\Users\User\Desktop\Ksena A - Films [Collection] [2007-2011].[tfile.ru]\[Met-Art] Ksena A - Binilan (Aug 18, 2007)\Ksena A - Binilan.HDRip.720p.2007.by.A.L.[tfile.ru].mkv
Format : Matroska
Format version : Version 4 / Version 2
File size : 454 MiB
Duration : 10mn 14s
Overall bit rate : 6 192 Kbps
Writing application : Lavf57.41.100
Writing library : Lavf57.41.100 / Lavf57.41.100

Video
ID : 1
Format : AVC
Format/Info : Advanced Video Codec
Format profile : High@L3.1
Format settings, CABAC : Yes
Format settings, ReFrames : 4 frames
Codec ID : V_MPEG4/ISO/AVC
Duration : 10mn 14s
Bit rate : 6 000 Kbps
Width : 1 280 pixels
Height : 720 pixels
Display aspect ratio : 16:9
Frame rate mode : Constant
Frame rate : 25.000 fps
Color space : YUV
Chroma subsampling : 4:2:0
Bit depth : 8 bits
Scan type : Progressive
Bits/(Pixel*Frame) : 0.260
Stream size : 431 MiB (95%)
Writing library : x264 core 148
Encoding settings : cabac=1 / ref=3 / deblock=1:0:0 / analyse=0x3:0x113 / me=hex / subme=7 / psy=1 / psy_rd=1.00:0.00 / mixed_ref=1 / me_range=16 / chroma_me=1 / trellis=1 / 8x8dct=1 / cqm=0 / deadzone=21,11 / fast_pskip=1 / chroma_qp_offset=-2 / threads=6 / lookahead_threads=1 / sliced_threads=0 / nr=0 / decimate=1 / interlaced=0 / bluray_compat=0 / constrained_intra=0 / bframes=3 / b_pyramid=2 / b_adapt=1 / b_bias=0 / direct=1 / weightb=1 / open_gop=0 / weightp=2 / keyint=250 / keyint_min=25 / scenecut=40 / intra_refresh=0 / rc_lookahead=40 / rc=2pass / mbtree=1 / bitrate=6000 / ratetol=1.0 / qcomp=0.60 / qpmin=0 / qpmax=69 / qpstep=4 / cplxblur=20.0 / qblur=0.5 / ip_ratio=1.40 / aq=1:1.00
Default : Yes
Forced : No
DURATION : 00:10:14.445000000

Audio
ID : 2
Format : AC-3
Format/Info : Audio Coding 3
Mode extension : CM (complete main)
Format settings, Endianness : Big
Codec ID : A_AC3
Duration : 10mn 14s
Bit rate mode : Constant
Bit rate : 192 Kbps
Channel(s) : 2 channels
Channel positions : Front: L R
Sampling rate : 48.0 KHz
Frame rate : 31.250 fps (1536 spf)
Bit depth : 32 bits
Compression mode : Lossy
Delay relative to video : -125ms
Stream size : 14.1 MiB (3%)
Writing library : Lavc57.48.101 ac3
Default : Yes
Forced : No
DURATION : 00:10:14.528000000
MI (#6-8 )
General
Unique ID : 326261270965942630703840642389206669836 (0xF573A298D811C4BCC4BCB0B58F289A0C)
Complete name : C:\Users\User\Desktop\Ksena A - Films [Collection] [2007-2011].[tfile.ru]\[Showy Beauty] Polly & Andrea - Satisfaction (Dec 16, 2011)\Polly & Andrea - Satisfaction.HDRip.720p.2011.by.A.L.[tfile.ru].mkv
Format : Matroska
Format version : Version 4 / Version 2
File size : 442 MiB
Duration : 10mn 1s
Overall bit rate : 6 169 Kbps
Writing application : Lavf57.41.100
Writing library : Lavf57.41.100 / Lavf57.41.100

Video
ID : 1
Format : AVC
Format/Info : Advanced Video Codec
Format profile : High@L3.1
Format settings, CABAC : Yes
Format settings, ReFrames : 4 frames
Codec ID : V_MPEG4/ISO/AVC
Duration : 10mn 1s
Bit rate : 6 000 Kbps
Width : 1 280 pixels
Height : 720 pixels
Display aspect ratio : 16:9
Frame rate mode : Constant
Frame rate : 29.970 (29970/1000) fps
Color space : YUV
Chroma subsampling : 4:2:0
Bit depth : 8 bits
Scan type : Progressive
Bits/(Pixel*Frame) : 0.217
Stream size : 420 MiB (95%)
Writing library : x264 core 148
Encoding settings : cabac=1 / ref=3 / deblock=1:0:0 / analyse=0x3:0x113 / me=hex / subme=7 / psy=1 / psy_rd=1.00:0.00 / mixed_ref=1 / me_range=16 / chroma_me=1 / trellis=1 / 8x8dct=1 / cqm=0 / deadzone=21,11 / fast_pskip=1 / chroma_qp_offset=-2 / threads=6 / lookahead_threads=1 / sliced_threads=0 / nr=0 / decimate=1 / interlaced=0 / bluray_compat=0 / constrained_intra=0 / bframes=3 / b_pyramid=2 / b_adapt=1 / b_bias=0 / direct=1 / weightb=1 / open_gop=0 / weightp=2 / keyint=250 / keyint_min=25 / scenecut=40 / intra_refresh=0 / rc_lookahead=40 / rc=2pass / mbtree=1 / bitrate=6000 / ratetol=1.0 / qcomp=0.60 / qpmin=0 / qpmax=69 / qpstep=4 / cplxblur=20.0 / qblur=0.5 / ip_ratio=1.40 / aq=1:1.00
Default : Yes
Forced : No
DURATION : 00:10:01.106000000

Audio
ID : 2
Format : AC-3
Format/Info : Audio Coding 3
Mode extension : CM (complete main)
Format settings, Endianness : Big
Codec ID : A_AC3
Duration : 10mn 1s
Bit rate mode : Constant
Bit rate : 192 Kbps
Channel(s) : 2 channels
Channel positions : Front: L R
Sampling rate : 48.0 KHz
Frame rate : 31.250 fps (1536 spf)
Bit depth : 32 bits
Compression mode : Lossy
Stream size : 13.8 MiB (3%)
Writing library : Lavc57.48.101 ac3
Default : Yes
Forced : No
DURATION : 00:10:01.120000000

Информация о торренте:
Размер содержимого: 2.5 GB
Скачан: 249 раз
Статус: Проверен
Зарегистрирован на трекере: 2019-03-02 11:21
Скачать торрент


Поддержи раздачу — поставь лайк:
Алексей Лобанов
2019-03-02 11:22
Желаю

Писать комментарии на нашем торрент-трекере могут только зарегистрированные пользователи.
Зарегистрируйтесь или авторизируйтесь на сайте.