»
»

Скачать фильм Аттестат зрелости (Татьяна Лукашевич) / [1954, драма, DVDRip-AVC] - торрент

Скачать фильм бесплатно через торрент. Фильм доступен на нашем торрент-трекере бесплатно, без регистрации и смс.

Статистика раздачи
11 [ 0 b/s ] ↑ 1.6 GB ↓ 1 [ 1.8 MB/s ]
Автор Сообщение
BLIZNEC W
2019-03-02 01:29
Аттестат зрелости
Аттестат зрелости Формат: DVDRip-AVC, MKV, H.264, AC3
Режиссер: Татьяна Лукашевич
Жанр: драма
Продолжительность: 01:29:25
Год выпуска: 1954

В ролях: Василий Лановой, Вадим Грачёв, Галина Ляпина, Тамара Кирсанова, Александр Суснин, Владимир Андреев, Юрий Кротенко, Виктор Гераскин, Георгий Черноволенко, Татьяна Ленникова, Леонид Галлис, Владимир Емельянов, Людмила Скопина, Владимир Кенигсон, Владимир Дорофеев

Описание: По одноименной повести Л. Гераскиной. Одаренный, но избалованный и эгоистичный Валентин спровоцировал в школе конфликтную ситуацию. Но друзья не дали парню волю: герой был разоблачен и наказан.

Рейтинг и доп. информация:


Видео: 700x574@746x574, (4:3), 25 fps, AVC MPEG-4 (x264), High@L4.1 ~ 2338 kbps , 0.233 bit/pixel
Аудио: 48 kHz, АС3, 2/0 (L,R), ~192.00 kbps avg
MediaInfo
x264 [info]: frame I:804 Avg QP:18.55 size: 64295
x264 [info]: frame P:27963 Avg QP:20.18 size: 31096
x264 [info]: frame B:105363 Avg QP:22.36 size: 6455
x264 [info]: consecutive B-frames: 1.1% 1.5% 7.0% 19.0% 23.0% 43.4% 4.4% 0.5% 0.0% 0.0%

Общее
Уникальный идентификатор : 244649125614963654926511849943610293085 (0xB80DB52B1B3C3FE1B985491A5EA9FB5D)
Полное имя : D:Аттестат зрелости_1954-DVDRip-AVC_KORSAR.mkv
Формат : Matroska
Версия формата : Version 2
Размер файла : 1,61 Гбайт
Продолжительность : 1 ч. 29 м.
Общий поток : 2581 Кбит/сек
Название фильма : Аттестат зрелости_1954-DVDRip-AVC_KORSAR
Дата кодирования : UTC 2019-01-18 08:00:15
Программа кодирования : mkvmerge v5.8.0 ('No Sleep / Pillow') built on Sep 2 2012 15:37:04
Библиотека кодирования : libebml v1.2.3 + libmatroska v1.3.0

Видео
Идентификатор : 1
Формат : AVC
Формат/Информация : Advanced Video Codec
Профиль формата : High@L4.1
Параметр CABAC формата : Да
Параметр ReFrames формата : 14 кадров
Идентификатор кодека : V_MPEG4/ISO/AVC
Продолжительность : 1 ч. 29 м.
Битрейт : 2338 Кбит/сек
Ширина : 700 пикселей
Высота : 574 пикселя
Соотношение сторон : 4:3
Соотношение сторон в оригинале : 4:3
Режим частоты кадров : Постоянный
Частота кадров : 25,000 кадров/сек
Цветовое пространство : YUV
Субдискретизация насыщенности : 4:2:0
Битовая глубина : 8 бит
Тип развёртки : Прогрессивная
Бит/(Пиксели*Кадры) : 0.233
Размер потока : 1,46 Гбайт (91%)
Библиотека кодирования : x264 core 152 r2851kMod ba24899
Настройки программы : cabac=1 / ref=14 / deblock=1:-2:-1 / analyse=0x3:0x133 / me=umh / subme=10 / psy=1 / fade_compensate=0.00 / psy_rd=1.00:0.05 / mixed_ref=1 / me_range=32 / chroma_me=1 / trellis=2 / 8x8dct=1 / cqm=0 / deadzone=21,11 / fast_pskip=1 / chroma_qp_offset=-3 / threads=12 / lookahead_threads=2 / sliced_threads=0 / nr=0 / decimate=1 / interlaced=0 / bluray_compat=0 / constrained_intra=0 / bframes=9 / b_pyramid=2 / b_adapt=2 / b_bias=0 / direct=1 / weightb=1 / open_gop=0 / weightp=2 / keyint=250 / keyint_min=25 / scenecut=40 / intra_refresh=0 / rc=crf / mbtree=0 / crf=18.0000 / qcomp=0.63 / qpmin=0 / qpmax=39 / qpstep=4 / ip_ratio=1.40 / pb_ratio=1.30 / aq=1:0.80
Язык : English
Default : Да
Forced : Нет
Основные цвета : BT.601 PAL
Характеристики трансфера : BT.470 System B, BT.470 System G
Коэффициенты матрицы : BT.601

Аудио
Идентификатор : 2
Формат : AC-3
Формат/Информация : Audio Coding 3
Расширение режима : CM (complete main)
Параметр Endianness формата : Big
Идентификатор кодека : A_AC3
Продолжительность : 1 ч. 29 м.
Вид битрейта : Постоянный
Битрейт : 192 Кбит/сек
Каналы : 2 канала
Расположение каналов : Front: L R
Частота : 48,0 КГц
Битовая глубина : 16 бит
Метод сжатия : С потерями
Размер потока : 123 Мбайт (7%)
Default : Да
Forced : Нет

Меню
00:00:00.000 : en:Chapter 1
00:08:18.920 : en:Chapter 2
00:18:17.840 : en:Chapter 3
00:26:12.000 : en:Chapter 4
00:38:58.000 : en:Chapter 5
00:54:00.400 : en:Chapter 6
01:05:14.160 : en:Chapter 7
01:15:18.320 : en:Chapter 8
01:24:43.840 : en:Chapter 9
01:29:23.800 : en:Chapter 10
01:29:25.160 : en:Chapter 11

Информация о торренте:
Размер содержимого: 1.6 GB
Скачан: 119 раз
Статус: Проверен
Зарегистрирован на трекере: 2019-03-02 00:29
Скачать торрент


Поддержи раздачу — поставь лайк:
BLIZNEC W
2019-03-02 00:29
Интересного и приятного просмотра!!!

Мои раздачи
Писать комментарии на нашем торрент-трекере могут только зарегистрированные пользователи.
Зарегистрируйтесь или авторизируйтесь на сайте.