»
»

Скачать фильм Фантастические твари: Преступления Грин-де-Вальда / Fantastic Beasts: The Crimes of Grindelwald (Дэвид Йейтс) [2018, фэнтези, приключения, семейный, BDRemux 1080p] DUB [iTunes]+MVO - торрент

Нажмите на синюю кнопку ниже, чтобы скачать фильм бесплатно через торрент. Фильм доступен на нашем торрент-трекере бесплатно, без регистрации и смс.

Статистика раздачи
46 [ 777.0 KB/s ] ↑ 24.8 GB ↓ 4 [ 9.0 MB/s ]
Автор Сообщение
rainbow.n
2019-03-01 22:57
Фантастические твари: Преступления Грин-де-Вальда / Fantastic Beasts: The Crimes of Grindelwald
Фантастические твари: Преступления Грин-де-Вальда / Fantastic Beasts: The Crimes of Grindelwald Перевод: Профессиональный (полное дублирование) [iTunes]
Cубтитры: русские, английские
Формат: BDRemux, MKV, H.264, AC3/True-HD
Страна: Великобритания, США
Режиссер: Дэвид Йейтс
Жанр: фэнтези, приключения, семейный
Продолжительность: 02:13:50
Год выпуска: 2018

В ролях: Эдди Редмэйн, Джонни Депп, Кэтрин Уотерстон, Элисон Судол, Дэн Фоглер, Джуд Лоу, Эзра Миллер, Зои Кравиц, Каллум Тернер, Клаудия Ким

Описание: Могущественный тёмный волшебник Геллерт Грин-де-Вальд пойман в Штатах, но не собирается молча сидеть в темнице и устраивает грандиозный побег. Теперь ничто не помешает ему добиться своей цели — установить превосходство волшебников над всеми немагическими существами на планете. Чтобы сорвать планы Грин-де-Вальда, Альбус Дамблдор обращается к своему бывшему студенту Ньюту Саламандеру, который соглашается помочь, не подозревая, какая опасность ему грозит. В раскалывающемся на части волшебном мире любовь и верность проверяются на прочность, а конфликт разделяет даже настоящих друзей и членов семей.

6,7/10 128 075

Видео: 1920x1080p (16:9), 23,976 fps, AVC MPEG-4 (x264), High@L4.1 ~ 21,9 Mbit/s, 0.441 bit/pixel

Аудио#1: Русский: 48 kHz, AC3, 3/2 (L,C,R,l,r) + LFE ch, ~384 kbps avg [Профессиональный (полное дублирование) iTunes]
Аудио#2: Русский: 48 kHz, AC3, 2/0 (L,R) ch, ~192 kbps avg [Любительский (многоголосый, закадровый) HDRezka Studio]
Аудио#3: Английский: Dolby TrueHD+Atmos, 8 ch, 48 kHz, 3457 kbps [Оригинал]
Аудио#4: Английский: 48 kHz, AC3, 3/2 (L,C,R,l,r) + LFE ch, ~448 kbps avg [Оригинал]
MI
Общее
Уникальный идентификатор : 222975537603313607279614236828794436741 (0xA7BF86C6F9699B2390DBB471109D3C85)
Полное имя : D:\Fantastic.Beasts.The.Crimes.of.Grindelwald.2018.Remux.mkv
Формат : Matroska
Версия формата : Version 4 / Version 2
Размер файла : 24,8 Гбайт
Продолжительность : 2 ч. 13 м.
Режим общего битрейта : Переменный
Общий поток : 26,5 Мбит/сек
Дата кодирования : UTC 2019-03-01 16:34:05
Программа кодирования : mkvmerge v7.1.0 ('Good Love') 32bit built on Jul 27 2014 12:59:18
Библиотека кодирования : libebml v1.3.0 + libmatroska v1.4.1

Видео
Идентификатор : 1
Формат : AVC
Формат/Информация : Advanced Video Codec
Профиль формата : High@L4.1
Параметр CABAC формата : Да
Параметр RefFrames формата : 2 кадра
Параметр GOP формата : M=1, N=10
Идентификатор кодека : V_MPEG4/ISO/AVC
Продолжительность : 2 ч. 13 м.
Вид битрейта : Переменный
Битрейт : 21,9 Мбит/сек
Ширина : 1920 пикселей
Высота : 1080 пикселей
Соотношение сторон : 16:9
Режим частоты кадров : Постоянный
Частота кадров : 23,976 (24000/1001) кадра/сек
Цветовое пространство : YUV
Субдискретизация насыщенности : 4:2:0
Битовая глубина : 8 бит
Тип развёртки : Прогрессивная
Бит/(Пиксели*Кадры) : 0.441
Размер потока : 20,5 Гбайт (83%)
Язык : English
Default : Да
Forced : Нет

Аудио #1
Идентификатор : 2
Формат : AC-3
Формат/Информация : Audio Coding 3
Параметр Endianness формата : Big
Идентификатор кодека : A_AC3
Продолжительность : 2 ч. 13 м.
Вид битрейта : Постоянный
Битрейт : 384 Кбит/сек
Каналы : 6 каналов
Расположение каналов : Front: L C R, Side: L R, LFE
Частота : 48,0 КГц
Частота кадров : 31,250 кадров/сек (1536 SPF)
Битовая глубина : 16 бит
Метод сжатия : С потерями
Размер потока : 368 Мбайт (1%)
Заголовок : DUB
Язык : Russian
ServiceKind/String : Complete Main
Default : Да
Forced : Да

Аудио #2
Идентификатор : 3
Формат : AC-3
Формат/Информация : Audio Coding 3
Параметр Endianness формата : Big
Идентификатор кодека : A_AC3
Продолжительность : 2 ч. 13 м.
Вид битрейта : Постоянный
Битрейт : 192 Кбит/сек
Каналы : 2 канала
Расположение каналов : Front: L R
Частота : 48,0 КГц
Частота кадров : 31,250 кадров/сек (1536 SPF)
Битовая глубина : 16 бит
Метод сжатия : С потерями
Размер потока : 184 Мбайт (1%)
Заголовок : MVO
Язык : Russian
ServiceKind/String : Complete Main
Default : Нет
Forced : Нет

Аудио #3
Идентификатор : 4
Формат : TrueHD
Профиль формата : TrueHD+Atmos / TrueHD
Идентификатор кодека : A_TRUEHD
Продолжительность : 2 ч. 13 м.
Вид битрейта : Переменный
Битрейт : 3457 Кбит/сек
Максимальный битрейт : 5013 Кбит/сек
Каналы : Object Based / 8 каналов
Расположение каналов : Object Based / Front: L C R, Side: L R, Back: L R, LFE
Частота : / 48,0 КГц
Частота кадров : 1200,000 кадров/сек (40 SPF)
Метод сжатия : Без потерь
Размер потока : 3,23 Гбайт (13%)
Язык : English
Default : Нет
Forced : Нет

Аудио #4
Идентификатор : 5
Формат : AC-3
Формат/Информация : Audio Coding 3
Параметр Endianness формата : Big
Идентификатор кодека : A_AC3
Продолжительность : 2 ч. 13 м.
Вид битрейта : Постоянный
Битрейт : 448 Кбит/сек
Каналы : 6 каналов
Расположение каналов : Front: L C R, Side: L R, LFE
Частота : 48,0 КГц
Частота кадров : 31,250 кадров/сек (1536 SPF)
Битовая глубина : 16 бит
Метод сжатия : С потерями
Размер потока : 429 Мбайт (2%)
Язык : English
ServiceKind/String : Complete Main
Default : Нет
Forced : Нет

Текст #1
Идентификатор : 6
Формат : UTF-8
Идентификатор кодека : S_TEXT/UTF8
Идентификатор кодека/Информация : UTF-8 Plain Text
Продолжительность : 2 ч. 0 м.
Битрейт : 1 бит/сек
ElementCount : 25
Размер потока : 1,13 Кбайт (0%)
Заголовок : Forced
Язык : Russian
Default : Да
Forced : Да

Текст #2
Идентификатор : 7
Формат : UTF-8
Идентификатор кодека : S_TEXT/UTF8
Идентификатор кодека/Информация : UTF-8 Plain Text
Продолжительность : 2 ч. 4 м.
Битрейт : 70 бит/сек
ElementCount : 1249
Размер потока : 63,9 Кбайт (0%)
Заголовок : Full
Язык : Russian
Default : Нет
Forced : Нет

Текст #3
Идентификатор : 8
Формат : UTF-8
Идентификатор кодека : S_TEXT/UTF8
Идентификатор кодека/Информация : UTF-8 Plain Text
Продолжительность : 2 ч. 3 м.
Битрейт : 68 бит/сек
ElementCount : 1190
Размер потока : 62,2 Кбайт (0%)
Заголовок : Full v.2
Язык : Russian
Default : Нет
Forced : Нет

Текст #4
Идентификатор : 9
Формат : UTF-8
Идентификатор кодека : S_TEXT/UTF8
Идентификатор кодека/Информация : UTF-8 Plain Text
Продолжительность : 2 ч. 3 м.
Битрейт : 40 бит/сек
ElementCount : 1185
Размер потока : 36,8 Кбайт (0%)
Язык : English
Default : Нет
Forced : Нет

Меню
00:00:00.000 : :Capítulo 01
00:07:15.310 : :Capítulo 02
00:21:39.381 : :Capítulo 03
00:32:56.850 : :Capítulo 04
00:41:41.124 : :Capítulo 05
00:50:26.190 : :Capítulo 06
00:58:21.540 : :Capítulo 07
01:12:02.860 : :Capítulo 08
01:20:23.610 : :Capítulo 09
01:34:50.059 : :Capítulo 10
01:43:08.557 : :Capítulo 11
01:51:42.237 : :Capítulo 12
02:00:31.641 : :Capítulo 13


Информация о торренте:
Размер содержимого: 24.8 GB
Скачан: 520 раз
Статус: Проверен
Зарегистрирован на трекере: 2019-03-01 21:57
Скачать торрент


Поддержи раздачу — поставь лайк:

Писать комментарии на нашем торрент-трекере могут только зарегистрированные пользователи.
Зарегистрируйтесь или авторизируйтесь на сайте.