»
»

Скачать сериал Академия Амбрелла, 1 сезон 1-10 серии из 10 / The Umbrella Academy [TVShows] (Эндрю Бернштейн, Питер Хор, Эллен Кёрас, Стивен Серджик) [2019, Фантастика, драма, криминал, супергерой, WEBRip 1080p, P] - торрент

Скачать торрент сериал можно, нажав на синюю кнопку ниже. Сериал доступен на нашем торрент-трекере бесплатно, без регистрации и смс.

Статистика раздачи
4 [ 0 b/s ] ↑ 19.1 GB ↓ 1 [ 0 b/s ]
Автор Сообщение
Lacky1907
2019-03-01 10:22
Академия Амбрелла / The Umbrella Academy
Академия Амбрелла, 1 сезон 1-10 серии из 10 / The Umbrella Academy [TVShows]
Перевод: Профессиональный (многоголосый закадровый) TVShows Cубтитры: aнглийские
Формат: WEBRip 1080p, MKV, H.264, AC3
Страна: США, Netflix, Dark Horse Entertainment
Режиссер: Эндрю Бернштейн, Питер Хор, Эллен Кёрас, Стивен Серджик
Жанр: Фантастика, драма, криминал, супергерой
Всего серий: 10
Продолжительность: 10 x ~ 00:55:00
Год выпуска: 2019

В ролях: Эллен Пейдж, Том Хоппер, Дэвид Кастанеда, Эмми Рэвер-Лэмпман, Роберт Шиэн, Эйдан Галлахер, Мэри Джей Блайдж, Камерон Бриттон, Адам Годли, Колм Фиор, Шейла Маккарти, Джастин Х. Мин, Джордан Клер Роббинс, Джон Магаро

Описание: Это история о некогда развалившейся команде юных дарований «Академия Амбрелла». Спустя годы шестеро выживших воспитанников, в своё время так и не сумевших поладить друг с другом, вновь объединяются для выяснения тайны гибели их приёмного отца — основателя «Академии» сэра Реджинальда Харгривза. А ещё воссоединившейся «семье» придётся иметь дело с надвигающимся концом света.

[imdb=http://www.imdb.com/title/tt1312171/]

Видео: 1920x1080 (16:9), 23,976 fps, AVC (х264), Main@L4, ~4640 kbps avg, 0.093 bit/pixel
Аудио 1#: Rus: 48 kHz, AC3 Dolby Digital, 3/2 (L,C,R,l,r) + LFE ch, ~384 kbps
Аудио 2#: Eng: 48 kHz, E-AC3, 3/2 (L,C,R,l,r) + LFE ch, ~640 kbps

Релиз без рекламы


MediaInfo

Общее
Уникальный идентификатор : 159730184946329035296642502664740462570 (0x782AEA249B28D9F293F046D32F98DFEA)
Полное имя : I:\Тифайл\Обновления - Тифайл\The.Umbrella.Academy.S01.1080p.TVShows\The.Umbrella.Academy.S01E01.1080p.TVShows.mkv
Формат : Matroska
Версия формата : Version 4 / Version 2
Размер файла : 2,30 Гбайт
Продолжительность : 59 м. 18 с.
Режим общего битрейта : Переменный
Общий поток : 5542 Кбит/сек
Дата кодирования : UTC 2019-02-26 07:51:12
Программа кодирования : mkvmerge v31.0.0 ('Dolores In A Shoestand') 64-bit
Библиотека кодирования : libebml v1.3.6 + libmatroska v1.4.9

Видео
Идентификатор : 1
Формат : AVC
Формат/Информация : Advanced Video Codec
Профиль формата : Main@L4
Параметр CABAC формата : Да
Параметр ReFrames формата : 3 кадра
Идентификатор кодека : V_MPEG4/ISO/AVC
Продолжительность : 59 м. 17 с.
Вид битрейта : Переменный
Битрейт : 4640 Кбит/сек
Максимальный битрейт : 6960 Кбит/сек
Ширина : 1920 пикселей
Высота : 1080 пикселей
Соотношение сторон : 16:9
Режим частоты кадров : Постоянный
Частота кадров : 23,976 (24000/1001) кадра/сек
Цветовое пространство : YUV
Субдискретизация насыщенности : 4:2:0
Битовая глубина : 8 бит
Тип развёртки : Прогрессивная
Бит/(Пиксели*Кадры) : 0.093
Размер потока : 1,87 Гбайт (81%)
Библиотека кодирования : x264 core 148 r2715 7e75228
Настройки программы : cabac=1 / ref=3 / deblock=1:0:0 / analyse=0x1:0x111 / me=umh / subme=10 / psy=1 / psy_rd=1.00:0.00 / mixed_ref=1 / me_range=24 / chroma_me=1 / trellis=2 / 8x8dct=0 / cqm=0 / deadzone=21,11 / fast_pskip=1 / chroma_qp_offset=-2 / threads=8 / lookahead_threads=1 / sliced_threads=0 / nr=0 / decimate=1 / interlaced=0 / bluray_compat=0 / stitchable=1 / constrained_intra=0 / bframes=2 / b_pyramid=0 / b_adapt=2 / b_bias=0 / direct=3 / weightb=1 / open_gop=0 / weightp=2 / keyint=48 / keyint_min=25 / scenecut=0 / intra_refresh=0 / rc_lookahead=48 / rc=2pass / mbtree=1 / bitrate=4640 / ratetol=1.0 / qcomp=0.50 / qpmin=6 / qpmax=51 / qpstep=4 / cplxblur=20.0 / qblur=0.5 / vbv_maxrate=6960 / vbv_bufsize=9280 / nal_hrd=vbr / filler=0 / ip_ratio=1.40 / aq=1:1.00
Default : Да
Forced : Нет

Аудио #1
Идентификатор : 2
Формат : AC-3
Формат/Информация : Audio Coding 3
Параметр Endianness формата : Big
Идентификатор кодека : A_AC3
Продолжительность : 59 м. 18 с.
Вид битрейта : Постоянный
Битрейт : 384 Кбит/сек
Каналы : 6 каналов
Расположение каналов : Front: L C R, Side: L R, LFE
Частота : 48,0 КГц
Частота кадров : 31,250 кадров/сек (1536 spf)
Битовая глубина : 16 бит
Метод сжатия : С потерями
Размер потока : 163 Мбайт (7%)
Заголовок : TVShows
Язык : Russian
ServiceKind/String : Complete Main
Default : Да
Forced : Да

Аудио #2
Идентификатор : 3
Формат : E-AC-3
Формат/Информация : Enhanced Audio Coding 3
Параметр Endianness формата : Big
Идентификатор кодека : A_EAC3
Продолжительность : 59 м. 18 с.
Вид битрейта : Постоянный
Битрейт : 640 Кбит/сек
Каналы : 6 каналов
Расположение каналов : Front: L C R, Side: L R, LFE
Частота : 48,0 КГц
Частота кадров : 187,500 кадров/сек (256 spf)
Метод сжатия : С потерями
Размер потока : 271 Мбайт (12%)
Заголовок : Original
Язык : English
ServiceKind/String : Complete Main
Default : Нет
Forced : Нет

Текст
Идентификатор : 4
Формат : UTF-8
Идентификатор кодека : S_TEXT/UTF8
Идентификатор кодека/Информация : UTF-8 Plain Text
Продолжительность : 57 м. 4 с.
Битрейт : 57 бит/сек
ElementCount : 774
Размер потока : 24,2 Кбайт (0%)
Заголовок : English
Язык : English
Default : Нет
Forced : Нет


Информация о торренте:
Размер содержимого: 19.1 GB
Скачан: 58 раз
Статус: Проверен
Зарегистрирован на трекере: 2019-11-22 02:14
Скачать торрент


Поддержи раздачу — поставь лайк:
Kleopatra772177.
2019-05-01 01:39
Писать комментарии на нашем торрент-трекере могут только зарегистрированные пользователи.
Зарегистрируйтесь или авторизируйтесь на сайте.