»
»

Скачать сериал Роковой патруль, 1 сезон 1-15 серии из 15 / Doom Patrol [TVShows] (Крис Мэнли, Салли Ричардсон-Уитфилд, Глен Винтер) [2019, Фантастика, боевик, драма, приключения, WEB-DLRip 1080p, P] - торрент

Скачать сериал через торрент бесплатно. Сериал доступен на нашем торрент-трекере бесплатно, без регистрации и смс.

Статистика раздачи
19 [ 0 b/s ] ↑ 30.1 GB ↓ 0 [ 0 b/s ]
Автор Сообщение
Lacky1907
2019-02-28 10:28
Роковой патруль / Doom Patrol
Роковой патруль, 1 сезон 1-15 серии из 15 / Doom Patrol [TVShows]
Перевод: Профессиональный (многоголосый закадровый) TVShows Субтитры: английские
Формат: WEBDLRip, MKV, H.264, AC3
Страна: США, DC Comics
Режиссер: Крис Мэнли, Салли Ричардсон-Уитфилд, Глен Винтер
Жанр: Фантастика, боевик, драма, приключения
Всего серий: 15
Продолжительность: 15 x ~ 00:58:00
Год выпуска: 2019

В ролях: Дайан Герерро, Эйприл Боулби, Мэтт Бомер, Тимоти Далтон, Райли Шэнэхэн, Мэттью Зук, Брендан Фрейзер, Алан Тьюдик, Джоиван Уэйд, Кайл Расселл Клементс

Описание: Сюжет повествует о супергероях, обретших сверхспособности в результате изувечивших их роковых случайностей. В состав необычной команды под руководством сумасшедшего учёного Найлза Колдера (также известного как Шеф) входят Роботмен, Негативный Человек, Безумная Джейн и Эластичная Женщина. Сломленные и искалеченные, эти люди находят применение своим способностям, защищая Землю от самых невероятных угроз. Роковой патруль — команда изгоев, воюющих за спасение мира, которому нет до них никакого дела.

[imdb=http://www.imdb.com/title/tt8416494/]


Видео: 1920x1080 (16:9), 23.976 fps, AVC (х264), Baseline@L4, ~4959 kbps avg, 0.100 bit/pixel
Аудио 1#: Rus: 48 kHz, AC3 Dolby Digital, 2/0 (L,R) ch, ~192 kbps
Аудио 2#: Eng: 48 kHz, AAC LC, 2/0 (L,R) ch, ~128 kbps

Релиз без рекламы


MediaInfo

Общее
Уникальный идентификатор : 231130438328877829798585174503407337519 (0xADE21A6CDE32F30DA6C45C494A0DC02F)
Полное имя : I:\Тифайл\Обновления - Тифайл\Doom.Patrol.S01.1080p.TVShows\Doom.Patrol.S01E01.1080p.TVShows.mkv
Формат : Matroska
Версия формата : Version 4 / Version 2
Размер файла : 2,16 Гбайт
Продолжительность : 58 м. 31 с.
Общий поток : 5281 Кбит/сек
Дата кодирования : UTC 2019-02-25 07:28:54
Программа кодирования : mkvmerge v31.0.0 ('Dolores In A Shoestand') 64-bit
Библиотека кодирования : libebml v1.3.6 + libmatroska v1.4.9

Видео
Идентификатор : 1
Формат : AVC
Формат/Информация : Advanced Video Codec
Профиль формата : Baseline@L4
Параметр CABAC формата : Нет
Параметр ReFrames формата : 4 кадра
Параметр GOP формата : M=1, N=48
Идентификатор кодека : V_MPEG4/ISO/AVC
Продолжительность : 58 м. 31 с.
Битрейт : 4959 Кбит/сек
Ширина : 1920 пикселей
Высота : 1080 пикселей
Соотношение сторон : 16:9
Режим частоты кадров : Постоянный
Частота кадров : 23,976 (24000/1001) кадра/сек
Цветовое пространство : YUV
Субдискретизация насыщенности : 4:2:0
Битовая глубина : 8 бит
Тип развёртки : Прогрессивная
Бит/(Пиксели*Кадры) : 0.100
Размер потока : 2,03 Гбайт (94%)
Библиотека кодирования : Zencoder Video Encoding System
Default : Да
Forced : Нет
Цветовой диапазон : Limited
Основные цвета : BT.709
Характеристики трансфера : BT.709
Коэффициенты матрицы : BT.709

Аудио #1
Идентификатор : 2
Формат : AC-3
Формат/Информация : Audio Coding 3
Параметр Endianness формата : Big
Идентификатор кодека : A_AC3
Продолжительность : 58 м. 31 с.
Вид битрейта : Постоянный
Битрейт : 192 Кбит/сек
Каналы : 2 канала
Расположение каналов : Front: L R
Частота : 48,0 КГц
Частота кадров : 31,250 кадров/сек (1536 spf)
Битовая глубина : 16 бит
Метод сжатия : С потерями
Размер потока : 80,4 Мбайт (4%)
Заголовок : TVShows
Язык : Russian
ServiceKind/String : Complete Main
Default : Да
Forced : Да

Аудио #2
Идентификатор : 3
Формат : AAC
Формат/Информация : Advanced Audio Codec
Профиль формата : LC
Идентификатор кодека : A_AAC
Продолжительность : 58 м. 31 с.
Битрейт : 128 Кбит/сек
Каналы : 2 канала
Расположение каналов : Front: L R
Частота : 48,0 КГц
Частота кадров : 46,875 кадров/сек (1024 spf)
Метод сжатия : С потерями
Размер потока : 53,6 Мбайт (2%)
Заголовок : Original
Язык : English
Default : Нет
Forced : Нет

Текст
Идентификатор : 4
Формат : UTF-8
Идентификатор кодека : S_TEXT/UTF8
Идентификатор кодека/Информация : UTF-8 Plain Text
Продолжительность : 55 м. 30 с.
Битрейт : 63 бит/сек
ElementCount : 949
Размер потока : 25,6 Кбайт (0%)
Заголовок : English
Язык : English
Default : Нет
Forced : Нет


Информация о торренте:
Размер содержимого: 30.1 GB
Скачан: 220 раз
Статус: Проверен
Зарегистрирован на трекере: 2019-06-13 01:43
Скачать торрент


Поддержи раздачу — поставь лайк:
Писать комментарии на нашем торрент-трекере могут только зарегистрированные пользователи.
Зарегистрируйтесь или авторизируйтесь на сайте.