»
»

Скачать мультфильм Господство Суперменов / Reign of the Supermen (Сэм Лью ) [2019, мультфильм, фантастика, боевик, HDRip-AVC] MVO - торрент

Скачать бесплатный торрент мультфильм. Мультфильм доступен на нашем торрент-трекере бесплатно, без регистрации и смс.

Статистика раздачи
10 [ 257.0 KB/s ] ↑ 1.5 GB ↓ 0 [ 0 b/s ]
Автор Сообщение
monstryu
2019-02-25 14:14
Господство Суперменов / Reign of the Supermen
Господство Суперменов / Reign of the Supermen
Перевод: Профессиональный (многоголосый закадровый) HDRezka Studio, субтитры: отсутствуют
Формат: HDRip-AVC, MKV, H.264, AC3
Страна: США
Режиссер: Сэм Лью
Жанр: мультфильм, фантастика, боевик
Продолжительность: 01:27:13
Год выпуска: 2019
В ролях: Кэмерон Монахэн, Розарио Доусон, Натан Филлион, Ребекка Ромейн, Рэйн Уилсон, Джерри О`Коннелл, Дженнифер Хейл, Кристофер Горам, Шемар Мур, Бренда Стронг

Описание: Продолжение мультфильма "Смерть Супермена". История начинается через шесть месяцев после трагической смерти Супермена, погибшего во время сражения с чудовищным злодеем по имени Думсдэй. Мир все еще оплакивает потерю великого героя, когда его тело невероятным образом исчезает из могилы. В то время как власти проводят расследование, ситуация в городе усложняется внезапным появлением новых сверхлюдей, желающих стать преемниками Человека из стали. Супербой, Киборг-Супермен, Сталь и Уничтожитель – каждый из них отличается уникальным характером и стилем борьбы с преступностью, но лишь один сможет занять место супергероя.

[imdb=https://www.imdb.com/title/tt7167686/]

Видео: 1024x576 (16:9), 23.976 fps, AVC MPEG4 (x264), High@L4.1, ~2200 kbps avg, 0.156 bit/pixel
Аудио: 48 kHz, AC3 Dolby Digital, 2 (L,R) ch, ~192.00 kbps avg
MI
General
Unique ID : 162014762864693998110975101053458069653 (0x79E2E887E1BB1A26A34D8E940D323895)
Complete name : C:\Users\123\Desktop\Reign.of.the.Supermen.2019.HDRip-AVC_[tfile.ru].mkv
Format : Matroska
Format version : Version 4 / Version 2
File size : 1.46 GiB
Duration : 1h 27mn
Overall bit rate mode : Constant
Overall bit rate : 2 392 Kbps
Movie name : Reign.of.the.Supermen.2019 #TorpedoUK#
Encoded date : UTC 2019-02-25 05:54:41
Writing application : Lavf56.36.100
Writing library : Lavf56.36.100

Video
ID : 2
Format : AVC
Format/Info : Advanced Video Codec
Format profile : High@L4.1
Format settings, CABAC : Yes
Format settings, ReFrames : 2 frames
Format settings, GOP : M=1, N=25
Codec ID : V_MPEG4/ISO/AVC
Duration : 1h 27mn
Bit rate mode : Constant
Bit rate : 2 200 Kbps
Width : 1 024 pixels
Height : 576 pixels
Display aspect ratio : 16:9
Frame rate mode : Constant
Frame rate : 23.976 fps
Color space : YUV
Chroma subsampling : 4:2:0
Bit depth : 8 bits
Scan type : Progressive
Bits/(Pixel*Frame) : 0.156
Stream size : 1.32 GiB (90%)
Language : English
Default : Yes
Forced : No
DURATION : 01:27:12.895000000
NUMBER_OF_FRAMES : 125464
NUMBER_OF_BYTES : 3978460298
_STATISTICS_WRITING_APP : mkvmerge v29.0.0 ('Like It Or Not') 64-bit
_STATISTICS_WRITING_DATE_UTC : 2019-02-25 05:54:41
_STATISTICS_TAGS : BPS DURATION NUMBER_OF_FRAMES NUMBER_OF_BYTES

Audio
ID : 1
Format : AC-3
Format/Info : Audio Coding 3
Mode extension : CM (complete main)
Format settings, Endianness : Big
Codec ID : A_AC3
Duration : 1h 27mn
Bit rate mode : Constant
Bit rate : 192 Kbps
Channel(s) : 2 channels
Channel positions : Front: L R
Sampling rate : 48.0 KHz
Bit depth : 32 bits
Compression mode : Lossy
Stream size : 120 MiB (8%)
Title : MVO [HDRezka Studio]
Language : Russian
Default : Yes
Forced : No
DURATION : 01:27:30.432000000
NUMBER_OF_FRAMES : 164076
NUMBER_OF_BYTES : 126010368
_STATISTICS_WRITING_APP : mkvmerge v29.0.0 ('Like It Or Not') 64-bit
_STATISTICS_WRITING_DATE_UTC : 2019-02-25 05:54:41
_STATISTICS_TAGS : BPS DURATION NUMBER_OF_FRAMES NUMBER_OF_BYTES

Информация о торренте:
Размер содержимого: 1.5 GB
Скачан: 318 раз
Статус: Проверен
Зарегистрирован на трекере: 2019-02-25 13:14
Скачать торрент


Поддержи раздачу — поставь лайк:
Писать комментарии на нашем торрент-трекере могут только зарегистрированные пользователи.
Зарегистрируйтесь или авторизируйтесь на сайте.