»
»

Скачать Lina Diamond - Collection / [2012-2017, Эротическая фотография, Erotic, Posing] - торрент

Скачать бесплатно через торрент.

Статистика раздачи
4 [ 0 b/s ] ↑ 3.0 GB ↓ 1 [ 0 b/s ]
Автор Сообщение
Алексей Лобанов
2019-02-24 17:27
Lina Diamond - Collection
Lina Diamond - Collection
Год выпуска: 2012-2017
Жанр: Эротическая фотография
Автор: не известен
Издательство: Met-Art, RylskyArt, SexArt
Формат файлов: JPG
Разрешение: 1365x2048 - 3744x5616
Количество картинок: 1274 (14 сетов)

Описание: Полная коллекция фотосетов белорусской модели Lina Diamond за 2012-2017 гг.
Список сетов

[Met-Art] Lina Diamond - Abstergo - 100 photos - 4500px (18.01.2013)
[Met-Art] Lina Diamond - Aliaxes - 121 photos - 4500px (05.05.2013)
[Met-Art] Lina Diamond - Devoir - 111 photos - 4368 px (17.12.2012)
[Met-Art] Lina Diamond - Investice - 120 photos - 4500px (19.06.2013)
[Met-Art] Lina Diamond - Laisvas - 117 photos - 4500px (19.02.2013))
[Met-Art] Lina Diamond - Polytes - 115 photos - 2048px (09.08.2014)
[Met-Art] Lina Diamond - Presenting Lina Diamond - 120 photos - 5000px (03.08.2012)
[Met-Art] Lina Diamond - Protegant - 124 photos 5000px (05.11.2012)
[RylskyArt] Lina Diamond - Aken - 46 photos - 4368px (09.08.2014)
[RylskyArt] Lina Diamond - Koensi - 49 photos - 4368px (19.03.2013)
[RylskyArt] Lina Diamond - Laualina - 35 photos - 4200px (13.01.2013)
[RylskyArt] Lina Diamond - Odevia - 65 photos - 5000px (23.11.2012)
[RylskyArt] Lina Diamond & Jaime - Kopa Koos - 31 photos - 4368px (08.08.2013)
[SexArt] Lina Diamond - Thidy - 115 photos - 5616px (11.03.2017)

Примеры H: по одному из сета

Примеры V: по одному из сета

Примеры в оригинальном разрешении:

Доп. информация: В раздаче так же присутствуют три короткометражных эротических видео Lina Diamond.
Films
Перевод: Не требуется, cубтитры: отсутствуют
Формат: HDRip, MKV, H.264, AC3
Страна: Беларусь
Жанр: Erotic, Posing
Общая продолжительность: 00:17:32 (3 видео)
Год выпуска: 2013-2015

В ролях: Lina Diamond, Jaime
Описание: Коллекция эротических видео модели Lina Diamond.

Видео #1: 1280x720p (16:9) 23.976 fps, MPEG4 AVC (x264) High@L3.1, 6000 Kbps avg, 0.272 bit/pixel;
Видео #2,3: 1280x720p (16:9) 29.970 fps, MPEG4 AVC (x264) High@L3.1, 6000 Kbps avg, 0.217 bit/pixel;
Аудио: 48 kHz, AC3 Dolby Digital, 2/0 (L,R) ch, ~192 kbps avg [во всех видео]

Фотостудии

Met-Art, RylskyArt
MI (1)
General
Unique ID : 77259850803465924059354461208427544121 (0x3A1FB4BD7916786E72E4FF921586BE39)
Complete name : C:\Users\User\Desktop\Lina Diamond - Collection.[2012-2017].by.A.L.[tfile.ru]\[Film] [Met-Art] Lina Diamond - Creador (24.03.2013)\Lina Diamond - Creador.HDRip.720p.2013.by.A.L.[tfile.ru].mkv
Format : Matroska
Format version : Version 4 / Version 2
File size : 312 MiB
Duration : 7mn 2s
Overall bit rate : 6 194 Kbps
Writing application : Lavf57.41.100
Writing library : Lavf57.41.100 / Lavf57.41.100

Video
ID : 1
Format : AVC
Format/Info : Advanced Video Codec
Format profile : High@L3.1
Format settings, CABAC : Yes
Format settings, ReFrames : 4 frames
Codec ID : V_MPEG4/ISO/AVC
Duration : 7mn 2s
Bit rate : 6 000 Kbps
Width : 1 280 pixels
Height : 720 pixels
Display aspect ratio : 16:9
Frame rate mode : Constant
Frame rate : 23.976 fps
Color space : YUV
Chroma subsampling : 4:2:0
Bit depth : 8 bits
Scan type : Progressive
Bits/(Pixel*Frame) : 0.272
Stream size : 296 MiB (95%)
Writing library : x264 core 148
Encoding settings : cabac=1 / ref=3 / deblock=1:0:0 / analyse=0x3:0x113 / me=hex / subme=7 / psy=1 / psy_rd=1.00:0.00 / mixed_ref=1 / me_range=16 / chroma_me=1 / trellis=1 / 8x8dct=1 / cqm=0 / deadzone=21,11 / fast_pskip=1 / chroma_qp_offset=-2 / threads=6 / lookahead_threads=1 / sliced_threads=0 / nr=0 / decimate=1 / interlaced=0 / bluray_compat=0 / constrained_intra=0 / bframes=3 / b_pyramid=2 / b_adapt=1 / b_bias=0 / direct=1 / weightb=1 / open_gop=0 / weightp=2 / keyint=250 / keyint_min=23 / scenecut=40 / intra_refresh=0 / rc_lookahead=40 / rc=2pass / mbtree=1 / bitrate=6000 / ratetol=1.0 / qcomp=0.60 / qpmin=0 / qpmax=69 / qpstep=4 / cplxblur=20.0 / qblur=0.5 / ip_ratio=1.40 / aq=1:1.00
Language : English
Default : Yes
Forced : No
DURATION : 00:07:02.715000000
HANDLER_NAME : VideoHandler

Audio
ID : 2
Format : AC-3
Format/Info : Audio Coding 3
Mode extension : CM (complete main)
Format settings, Endianness : Big
Codec ID : A_AC3
Duration : 7mn 2s
Bit rate mode : Constant
Bit rate : 192 Kbps
Channel(s) : 2 channels
Channel positions : Front: L R
Sampling rate : 48.0 KHz
Frame rate : 31.250 fps (1536 spf)
Bit depth : 32 bits
Compression mode : Lossy
Delay relative to video : 16ms
Stream size : 9.68 MiB (3%)
Writing library : Lavc57.48.101 ac3
Language : English
Default : Yes
Forced : No
DURATION : 00:07:02.736000000
HANDLER_NAME : SoundHandler
MI (2,3)
General
Unique ID : 133808034793372659501266099192287887832 (0x64AA7D773F42D61DBC18DBB5FFEA81D8)
Complete name : C:\Users\User\Desktop\Lina Diamond - Collection.[2012-2017].by.A.L.[tfile.ru]\[Film] [RylskyArt] Lina Diamond - Bethere (25.01.2015)\Lina Diamond - Bethere.HDRip.720p.2015..by.A.L.[tfile.ru].mkv
Format : Matroska
Format version : Version 4 / Version 2
File size : 250 MiB
Duration : 5mn 39s
Overall bit rate : 6 190 Kbps
Writing application : Lavf57.41.100
Writing library : Lavf57.41.100 / Lavf57.41.100

Video
ID : 1
Format : AVC
Format/Info : Advanced Video Codec
Format profile : High@L3.1
Format settings, CABAC : Yes
Format settings, ReFrames : 4 frames
Codec ID : V_MPEG4/ISO/AVC
Duration : 5mn 39s
Bit rate : 6 000 Kbps
Width : 1 280 pixels
Height : 720 pixels
Display aspect ratio : 16:9
Frame rate mode : Constant
Frame rate : 29.970 (29970/1000) fps
Color space : YUV
Chroma subsampling : 4:2:0
Bit depth : 8 bits
Scan type : Progressive
Bits/(Pixel*Frame) : 0.217
Stream size : 238 MiB (95%)
Writing library : x264 core 148
Encoding settings : cabac=1 / ref=3 / deblock=1:0:0 / analyse=0x3:0x113 / me=hex / subme=7 / psy=1 / psy_rd=1.00:0.00 / mixed_ref=1 / me_range=16 / chroma_me=1 / trellis=1 / 8x8dct=1 / cqm=0 / deadzone=21,11 / fast_pskip=1 / chroma_qp_offset=-2 / threads=6 / lookahead_threads=1 / sliced_threads=0 / nr=0 / decimate=1 / interlaced=0 / bluray_compat=0 / constrained_intra=0 / bframes=3 / b_pyramid=2 / b_adapt=1 / b_bias=0 / direct=1 / weightb=1 / open_gop=0 / weightp=2 / keyint=250 / keyint_min=25 / scenecut=40 / intra_refresh=0 / rc_lookahead=40 / rc=2pass / mbtree=1 / bitrate=6000 / ratetol=1.0 / qcomp=0.60 / qpmin=0 / qpmax=69 / qpstep=4 / cplxblur=20.0 / qblur=0.5 / ip_ratio=1.40 / aq=1:1.00
Language : English
Default : Yes
Forced : No
DURATION : 00:05:39.372000000
HANDLER_NAME : VideoHandler

Audio
ID : 2
Format : AC-3
Format/Info : Audio Coding 3
Mode extension : CM (complete main)
Format settings, Endianness : Big
Codec ID : A_AC3
Duration : 5mn 39s
Bit rate mode : Constant
Bit rate : 192 Kbps
Channel(s) : 2 channels
Channel positions : Front: L R
Sampling rate : 48.0 KHz
Frame rate : 31.250 fps (1536 spf)
Bit depth : 32 bits
Compression mode : Lossy
Delay relative to video : 16ms
Stream size : 7.77 MiB (3%)
Writing library : Lavc57.48.101 ac3
Language : English
Default : Yes
Forced : No
DURATION : 00:05:39.408000000
HANDLER_NAME : SoundHandler


Автор релиза: Релиз:
Информация о торренте:
Размер содержимого: 3.0 GB
Скачан: 291 раз
Статус: Проверен
Зарегистрирован на трекере: 2019-02-24 16:27
Скачать торрент


Поддержи раздачу — поставь лайк:
Алексей Лобанов
2019-02-24 16:32
Желаю

Писать комментарии на нашем торрент-трекере могут только зарегистрированные пользователи.
Зарегистрируйтесь или авторизируйтесь на сайте.