»
»

Скачать фильм Самый длинный день Японии / Nihon no ichiban nagai hi / Japan's Longest Day (Кихати Окамото) [1967, драма, военный, история, BDRemux 1080p] AVO - торрент

Скачать торрент фильм можно, нажав на синюю кнопку ниже. Фильм доступен на нашем торрент-трекере бесплатно, без регистрации и смс.

Статистика раздачи
16 [ 0 b/s ] ↑ 34.7 GB ↓ 1 [ 0 b/s ]
Автор Сообщение
rainbow.n
2019-02-23 23:05
Самый длинный день Японии / Nihon no ichiban nagai hi / Japan's Longest Day
Самый длинный день Японии / Nihon no ichiban nagai hi  / Japan's Longest Day Перевод: Авторский (одноголосый)
Cубтитры: японскиe, английские
Формат: BDRemux, MKV, H.264, AC3/DTS-HD (MA)
Страна: Япония
Режиссер: Кихати Окамото
Жанр: драма, военный, история
Продолжительность: 02:37:24
Год выпуска: 1967

В ролях: Сэйдзи Миягути, Рокко Тоура, Тисю Рю, Со Ямамура, Тосиро Мифунэ, Йошио Косуги, Такаси Симура, Эцуши Такахаши, Такао Иноэ, Тадао Накамару

Описание: 15 августа 1945 года, японский народ столкнулся с полным поражением. Миллионы солдат и гражданских лиц погибли, остальные страдали от голода, их города были превращены в груды обломков, два из них испарились под взрывами атомных бомб. Правительство зашло в тупик, некоторые министры призывали к капитуляции, другие же утверждали, что честь требует принять последний бой на родной земле. Чтобы разрешить ситуацию, кабинет министров решил пойти на беспрецедентный шаг — просить императора решить судьбу нации. Не в силах больше выносить страдания своего народа, используя своё право, император объявил, что Япония хочет сдаться.
Но прежде многое ещё предстоит сделать: императорский указ, должен быть составлен, его нужно записать, и объявить нации. Многие не смогут принять капитуляцию, и готовы будут пойти на, что угодно — вплоть до измены — чтобы только избежать этого. В течение одних суток, судьба 100 миллионов человек будет решена. Это реальная история 15 августа 1945… Самого длинного дня Японии.


7,8/10 584

Видео: 1920x1080p (16:9), 23,976 fps, AVC MPEG-4 (x264), High@L4.1 ~ 28,9 Mbit/s, 0.581 bit/pixel

Аудио#1: Русский: 48 kHz, AC3, 2/0 (L,R) ch, ~192 kbps avg [Авторский (одноголосый) С. Кузнецов]
Аудио#2: Японский: 48 kHz, DTS-HD Master Audio, 8 ch, ~ 2388 kbps, 16-bit (DTS Core: 5.1 ch, 48 kHz, 1509 kbps, 16-bit) [Оригинал]
MI
Общее
Уникальный идентификатор : 173998333362951883254520534024511381779 (0x82E6DC2C37E4735DAEDE741156996113)
Полное имя : D:\Japans.Longest.Day.1967.1080p.JPN.Blu-ray.AVC.REMUX.mkv
Формат : Matroska
Версия формата : Version 4 / Version 2
Размер файла : 34,7 Гбайт
Продолжительность : 2 ч. 37 м.
Режим общего битрейта : Переменный
Общий поток : 31,5 Мбит/сек
Дата кодирования : UTC 2019-02-21 14:48:33
Программа кодирования : mkvmerge v9.3.1 ('Mask Machine') 32bit
Библиотека кодирования : libebml v1.3.4 + libmatroska v1.4.5

Видео
Идентификатор : 1
Формат : AVC
Формат/Информация : Advanced Video Codec
Профиль формата : High@L4.1
Параметр CABAC формата : Да
Параметр RefFrames формата : 4 кадра
Идентификатор кодека : V_MPEG4/ISO/AVC
Продолжительность : 2 ч. 37 м.
Вид битрейта : Переменный
Битрейт : 28,9 Мбит/сек
Максимальный битрейт : 40,0 Мбит/сек
Ширина : 1920 пикселей
Высота : 1080 пикселей
Соотношение сторон : 16:9
Режим частоты кадров : Постоянный
Частота кадров : 23,976 (23976/1000) кадра/сек
Частота кадров в оригинале : 23,976 (24000/1001) кадра/сек
Цветовое пространство : YUV
Субдискретизация насыщенности : 4:2:0
Битовая глубина : 8 бит
Тип развёртки : Прогрессивная
Бит/(Пиксели*Кадры) : 0.581
Размер потока : 31,8 Гбайт (92%)
Default : Да
Forced : Нет
Цветовой диапазон : Limited
Основные цвета : BT.709
Характеристики трансфера : BT.709
Коэффициенты матрицы : BT.709

Аудио #1
Идентификатор : 2
Формат : AC-3
Формат/Информация : Audio Coding 3
Параметр Endianness формата : Big
Идентификатор кодека : A_AC3
Продолжительность : 2 ч. 37 м.
Вид битрейта : Постоянный
Битрейт : 192 Кбит/сек
Каналы : 2 канала
Расположение каналов : Front: L R
Частота : 48,0 КГц
Частота кадров : 31,250 кадров/сек (1536 SPF)
Битовая глубина : 16 бит
Метод сжатия : С потерями
Размер потока : 216 Мбайт (1%)
Заголовок : Кузнецов
Язык : Russian
ServiceKind/String : Complete Main
Default : Да
Forced : Да

Аудио #2
Идентификатор : 3
Формат : DTS
Формат/Информация : Digital Theater Systems
Профиль формата : MA / Core
Режим : 16
Параметр Endianness формата : Big
Идентификатор кодека : A_DTS
Продолжительность : 2 ч. 37 м.
Вид битрейта : Переменный / Постоянный
Битрейт : 2388 Кбит/сек / 1509 Кбит/сек
Каналы : 6 каналов
Расположение каналов : Front: L C R, Side: L R, LFE
Частота : 48,0 КГц
Частота кадров : 93,750 кадра/сек (512 SPF)
Битовая глубина : 16 бит
Метод сжатия : Без потерь / Lossy
Размер потока : 2,63 Гбайт (8%)
Язык : Japanese
Default : Нет
Forced : Нет

Текст #1
Идентификатор : 4
Формат : PGS
Режим смешивания : zlib
Идентификатор кодека : S_HDMV/PGS
Идентификатор кодека/Информация : Picture based subtitle format used on BDs/HD-DVDs
Продолжительность : 2 ч. 34 м.
Битрейт : 15,5 Кбит/сек
ElementCount : 3384
Размер потока : 17,2 Мбайт (0%)
Язык : Japanese
Default : Да
Forced : Нет

Текст #2
Идентификатор : 5
Формат : PGS
Режим смешивания : zlib
Идентификатор кодека : S_HDMV/PGS
Идентификатор кодека/Информация : Picture based subtitle format used on BDs/HD-DVDs
Продолжительность : 2 ч. 37 м.
Битрейт : 17,6 Кбит/сек
ElementCount : 3606
Размер потока : 19,8 Мбайт (0%)
Язык : English
Default : Нет
Forced : Нет

Меню
00:00:00.000 : en:Chapter 1
00:02:15.802 : en:Chapter 2
00:03:52.398 : en:Chapter 3
00:05:45.345 : en:Chapter 4
00:06:54.247 : en:Chapter 5
00:08:34.722 : en:Chapter 6
00:10:28.669 : en:Chapter 7
00:13:30.768 : en:Chapter 8
00:15:19.418 : en:Chapter 9
00:17:19.538 : en:Chapter 10
00:19:32.629 : en:Chapter 11
00:23:58.728 : en:Chapter 12
00:29:29.184 : en:Chapter 13
00:31:18.293 : en:Chapter 14
00:33:39.934 : en:Chapter 15
00:36:03.786 : en:Chapter 16
00:37:57.441 : en:Chapter 17
00:40:12.743 : en:Chapter 18
00:44:56.902 : en:Chapter 19
00:53:06.892 : en:Chapter 20
00:58:48.858 : en:Chapter 21
01:04:29.740 : en:Chapter 22
01:11:44.508 : en:Chapter 23
01:15:59.555 : en:Chapter 24
01:19:49.993 : en:Chapter 25
01:22:55.887 : en:Chapter 26
01:26:48.870 : en:Chapter 27
01:30:24.168 : en:Chapter 28
01:34:10.019 : en:Chapter 29
01:41:09.188 : en:Chapter 30
01:44:02.235 : en:Chapter 31
01:47:24.813 : en:Chapter 32
01:50:54.439 : en:Chapter 33
01:55:09.527 : en:Chapter 34
02:00:47.156 : en:Chapter 35
02:04:49.607 : en:Chapter 36
02:10:35.118 : en:Chapter 37
02:13:23.870 : en:Chapter 38
02:15:06.056 : en:Chapter 39
02:20:25.375 : en:Chapter 40
02:26:43.961 : en:Chapter 41
02:29:27.333 : en:Chapter 42
02:31:36.754 : en:Chapter 43
02:35:17.016 : en:Chapter 44


Информация о торренте:
Размер содержимого: 34.7 GB
Скачан: 241 раз
Статус: Проверен
Зарегистрирован на трекере: 2019-02-23 22:05
Скачать торрент


Поддержи раздачу — поставь лайк:
dron788
2019-02-26 17:13
Те на них бомбу сбросили и они им опу лижут, а с нами в состоянии войны!
Восток дело тонкое ............... :-)
Писать комментарии на нашем торрент-трекере могут только зарегистрированные пользователи.
Зарегистрируйтесь или авторизируйтесь на сайте.