»
»

Скачать мультфильм Вредитель, 1 сезон 1-10 серии из 10 / Vermin (Алексис Бомонт) [2018, Мультсериал, комедия, криминал, WEB-DL 1080p] DVO + Original + Sub - торрент

Нажмите синюю кнопку, чтобы cкачать бесплатно через торрент мультфильм. Мультфильм доступен на нашем торрент-трекере бесплатно, без регистрации и смс.

Статистика раздачи
3 [ 0 b/s ] ↑ 3.6 GB ↓ 0 [ 0 b/s ]
Автор Сообщение
NewSation
2019-02-18 19:50
Вредитель / Vermin
Вредитель, 1 сезон 1-10 серии из 10 / Vermin Перевод: Любительский (двухголосый), NewStation
Субтитры: Французские, английские, испанские, германские, итальянские, португальские, арабские

Формат: WEB-DL 1080p, MKV, H.264, AC3
Страна: Франция
Режиссер: Алексис Бомонт
Жанр: Мультсериал, комедия, криминал
Продолжительность: ~ 00:08:07
Год выпуска: 2018

В ролях: Хэвиланд Стиллвелл, Жюльен Крампон, Месье Пуп, Хафид Ф. Бенамар

Описание: В погоне за мечтой робкий, набожный богомол покидает родной город, чтобы присоединиться к полиции в большом городе, где он сталкивается с жестокостью реального мира. Среди пьянства, наркотиков, бандитов, секс клубов и психанутых коллег, на тяжком опыте, он узнает, что даже у насекомых есть свои пороки.

[imdb=https://www.imdb.com/title/tt8292872/?ref_=ttfc_fc_tt]

Видео: 1920x1080 (16:9), 25 fps, AVC (х264) Baseline@L4, ~5628 kbps, 109 bit/pixel
Аудио 1: Русский: 48 kHz, AC3, (L,R) 2 ch, ~256 kbps
Аудио 2: Английский: 48 kHz, AAC, (L,R) 2 ch, ~126 kbps
Аудио 2: Французский: 48 kHz, AAC, (L,R) 2 ch, ~126 kbps
Аудио 2: Испанский: 48 kHz, AAC, (L,R) 2 ch, ~126 kbps

Доп. информация: Присутствует ненормативная лексика!
Реклама: Отсутствует

MediaInfo
Общее
Уникальный идентификатор : 192889910002084841633017463990745519039 (0x911D3ED03226EB4467BC13859AA353BF)
Полное имя : F:\NewStation\Vermin.S01.WEB-DL.1080p.NewStation\Vermin.S01E01.WEB-DL.1080p.NewStation.mkv
Формат : Matroska
Версия формата : Version 4 / Version 2
Размер файла : 349 Мбайт
Продолжительность : 7 м. 47 с.
Общий поток : 6266 Кбит/сек
Дата кодирования : UTC 2019-02-11 16:07:08
Программа кодирования : mkvmerge v28.1.0 ('Morning Child') 64-bit
Библиотека кодирования : libebml v1.3.6 + libmatroska v1.4.9

Видео
Идентификатор : 1
Формат : AVC
Формат/Информация : Advanced Video Codec
Профиль формата : Baseline@L4
Настройки формата : 3 Ref Frames
Параметр CABAC формата : Нет
Параметр RefFrames формата : 3 кадра
Параметр GOP формата : M=1, N=25
Идентификатор кодека : V_MPEG4/ISO/AVC
Продолжительность : 7 м. 47 с.
Битрейт : 5628 Кбит/сек
Номинальный битрейт : 6000 Кбит/сек
Ширина : 1920 пикселей
Высота : 1080 пикселей
Соотношение сторон : 16:9
Режим частоты кадров : Постоянный
Частота кадров : 25,000 кадров/сек
Цветовое пространство : YUV
Субдискретизация насыщенности : 4:2:0
Битовая глубина : 8 бит
Тип развёртки : Прогрессивная
Бит/(Пиксели*Кадры) : 0.109
Размер потока : 314 Мбайт (90%)
Библиотека кодирования : x264 core 148 r2665 a01e339
Настройки программы : cabac=0 / ref=3 / deblock=1:0:0 / analyse=0x1:0x111 / me=hex / subme=7 / psy=1 / psy_rd=1.00:0.00 / mixed_ref=1 / me_range=16 / chroma_me=1 / trellis=1 / 8x8dct=0 / cqm=0 / deadzone=21,11 / fast_pskip=1 / chroma_qp_offset=-2 / threads=8 / lookahead_threads=1 / sliced_threads=0 / nr=0 / decimate=1 / interlaced=0 / bluray_compat=0 / constrained_intra=0 / bframes=0 / weightp=0 / keyint=25 / keyint_min=13 / scenecut=0 / intra_refresh=0 / rc_lookahead=25 / rc=2pass / mbtree=1 / bitrate=6000 / ratetol=1.0 / qcomp=0.60 / qpmin=0 / qpmax=69 / qpstep=4 / cplxblur=20.0 / qblur=0.5 / vbv_maxrate=6000 / vbv_bufsize=4000 / nal_hrd=none / filler=0 / ip_ratio=1.40 / aq=1:1.00
Язык : English
Default : Да
Forced : Нет

Аудио #1
Идентификатор : 2
Формат : AC-3
Формат/Информация : Audio Coding 3
Идентификатор кодека : A_AC3
Продолжительность : 7 м. 47 с.
Вид битрейта : Постоянный
Битрейт : 256 Кбит/сек
Каналы : 2 канала
Расположение каналов : Front: L R
Частота : 48,0 КГц
Частота кадров : 31,250 кадров/сек (1536 SPF)
Битовая глубина : 16 бит
Метод сжатия : С потерями
Размер потока : 14,3 Мбайт (4%)
Заголовок : NewStation
Язык : Russian
ServiceKind/String : Complete Main
Default : Да
Forced : Нет

Аудио #2
Идентификатор : 3
Формат : AAC
Формат/Информация : Advanced Audio Codec
Профиль формата : LC
Идентификатор кодека : A_AAC-2
Продолжительность : 7 м. 47 с.
Битрейт : 126 Кбит/сек
Каналы : 2 канала
Расположение каналов : Front: L R
Частота : 44,1 КГц
Частота кадров : 43,066 кадра/сек (1024 SPF)
Метод сжатия : С потерями
Размер потока : 7,00 Мбайт (2%)
Заголовок : Fre
Язык : French
Default : Нет
Forced : Нет

Аудио #3
Идентификатор : 4
Формат : AAC
Формат/Информация : Advanced Audio Codec
Профиль формата : LC
Идентификатор кодека : A_AAC-2
Продолжительность : 7 м. 46 с.
Битрейт : 126 Кбит/сек
Каналы : 2 канала
Расположение каналов : Front: L R
Частота : 44,1 КГц
Частота кадров : 43,066 кадра/сек (1024 SPF)
Метод сжатия : С потерями
Размер потока : 6,99 Мбайт (2%)
Заголовок : Eng
Язык : English
Default : Нет
Forced : Нет

Аудио #4
Идентификатор : 5
Формат : AAC
Формат/Информация : Advanced Audio Codec
Профиль формата : LC
Идентификатор кодека : A_AAC-2
Продолжительность : 7 м. 46 с.
Битрейт : 126 Кбит/сек
Каналы : 2 канала
Расположение каналов : Front: L R
Частота : 44,1 КГц
Частота кадров : 43,066 кадра/сек (1024 SPF)
Метод сжатия : С потерями
Размер потока : 6,99 Мбайт (2%)
Заголовок : Spa
Язык : Spanish
Default : Нет
Forced : Нет

Текст #1
Идентификатор : 6
Формат : S_TEXT/WEBVTT
Идентификатор кодека : S_TEXT/WEBVTT
Продолжительность : 7 м. 1 с.
Битрейт : 89 бит/сек
ElementCount : 135
Размер потока : 4,60 Кбайт (0%)
Язык : English
Default : Нет
Forced : Нет

Текст #2
Идентификатор : 7
Формат : S_TEXT/WEBVTT
Идентификатор кодека : S_TEXT/WEBVTT
Продолжительность : 7 м. 17 с.
Битрейт : 96 бит/сек
ElementCount : 140
Размер потока : 5,16 Кбайт (0%)
Язык : Spanish
Default : Нет
Forced : Нет

Текст #3
Идентификатор : 8
Формат : S_TEXT/WEBVTT
Идентификатор кодека : S_TEXT/WEBVTT
Продолжительность : 7 м. 23 с.
Битрейт : 94 бит/сек
ElementCount : 140
Размер потока : 5,10 Кбайт (0%)
Язык : French
Default : Нет
Forced : Нет

Текст #4
Идентификатор : 9
Формат : S_TEXT/WEBVTT
Идентификатор кодека : S_TEXT/WEBVTT
Продолжительность : 7 м. 24 с.
Битрейт : 94 бит/сек
ElementCount : 140
Размер потока : 5,13 Кбайт (0%)
Язык : German
Default : Нет
Forced : Нет

Текст #5
Идентификатор : 10
Формат : S_TEXT/WEBVTT
Идентификатор кодека : S_TEXT/WEBVTT
Продолжительность : 7 м. 25 с.
Битрейт : 95 бит/сек
ElementCount : 140
Размер потока : 5,19 Кбайт (0%)
Язык : Italian
Default : Нет
Forced : Нет

Текст #6
Идентификатор : 11
Формат : S_TEXT/WEBVTT
Идентификатор кодека : S_TEXT/WEBVTT
Продолжительность : 7 м. 17 с.
Битрейт : 82 бит/сек
ElementCount : 136
Размер потока : 4,40 Кбайт (0%)
Язык : Portuguese
Default : Нет
Forced : Нет

Текст #7
Идентификатор : 12
Формат : S_TEXT/WEBVTT
Идентификатор кодека : S_TEXT/WEBVTT
Продолжительность : 7 м. 17 с.
Битрейт : 130 бит/сек
ElementCount : 138
Размер потока : 6,95 Кбайт (0%)
Язык : Arabic
Default : Нет
Forced : Нет
Внимание! Раздача ведётся путём добавления новых серий
Внимание! Раздача ведётся путём добавления новых серий; при каждом добавлении создаётся новый торрент. Чтобы начать докачку новой серии, пользователям необходимо сделать следующее:
(1) остановить скачивание,
(2) удалить старый торрент у себя из клиента (старые серии удалять не надо),
(3) скачать новый торрент и запустить его у себя в клиенте вместо старого, при этом указать клиенту путь в старую папку куда и должно происходить скачивание новых серий.

Ваш клиент при этом должен произвести хеширование (проверку) старой папки (если не производит сам - помогите ему сделать это), и будет докачивать только те серии которых у вас ещё нет. Старые серии при этом не удаляются, а продолжают раздаваться!

Eсли вы уже удалили старые серии, то предотвратить повторную закачку старых серий можно, отжав галочку в соответствующих местах при запуске нового торрента. По возможности, желательно не удалять старые серии как можно дольше, чтобы релизёр не столько продолжал раздавать старые серии, а смог сконцентрироваться на новых.

Информация о торренте:
Размер содержимого: 3.6 GB
Скачан: 189 раз
Статус: Проверен
Зарегистрирован на трекере: 2019-03-18 14:59
Скачать торрент


Поддержи раздачу — поставь лайк:
Писать комментарии на нашем торрент-трекере могут только зарегистрированные пользователи.
Зарегистрируйтесь или авторизируйтесь на сайте.