»
»

Скачать сериал Гадалка / Потапов и Люся (1-16 серии из 16) (Илья Казанков) [2018, детектив, триллер, драма, мистика, HDTV 1080i] - торрент

Нажмите синюю кнопку, чтобы cкачать бесплатно через торрент сериал. Сериал доступен на нашем торрент-трекере бесплатно, без регистрации и смс.

Статистика раздачи
357 [ 0 b/s ] ↑ 37.0 GB ↓ 1 [ 803.0 KB/s ]
Автор Сообщение
BLIZNEC W
2019-02-11 20:53
Гадалка / Потапов и Люся (1-16 серии из 16)
Гадалка / Потапов и Люся Перевод: Не требуется, cубтитры: отсутствуют
Формат: HDTV 1080i, MPEG-TS, H.264, AC3/MP2
Страна: Россия
Режиссер: Илья Казанков
Жанр: детектив, триллер, драма, мистика
Всего серий: 16
Продолжительность: 16 x ~ 00:48:00
Год выпуска: 2018

В ролях: Михаил Пореченков, Екатерина Олькина, Яна Крайнова, Юлия Ауг, Дмитрий Репин, Михаил Парыгин, Владимир Капустин, Василий Бочкарёв, Борис Щербаков, Анна Тараторкина, Николай Иванов (II), Александр Асташёнок, Сергей Губанов, Александр Левин (II), Константин Воробьёв, Лидия Мельникова, Лилия Лаврова, Евгений Рубаха, Виктория Рунцова, Анастасия Чуева, Игорь Ключников, Сергей Кагаков, Сергей Стёпин, Ксения Хаирова, Александра Живова, Александр Кузнецов

Описание: Жизнь Люси перевернулась после одной из ночей, когда ей приснился сон. В нем она увидела свою сестру Марию мертвой. Все чувства подсказывали девушке, что её сновидение было вещим... Люся приходит к следователю Потапову, ведущему дело об исчезновении её сестры, и описывает место преступления и преступника. Потапов, уверенный, что девушка в шоковом состоянии, мило выпроваживает её за дверь. А через некоторое время обнаруживают труп молодой девушки, Марии Некрасовой, сестры Люси, и место преступления выглядит ровно так, как его описывала Люся…Начальник ОВД, вопреки всем протестам и негодованиям Потапова, приглашает Люсю на работу в органы – её дар может быть очень полезен в оперативно-розыскной деятельности.

Рейтинг и доп. информация:


Видео: 1920х1080, (16:9), 25 fps, AVC MPEG-TS (x264), High@L4 ~ 5500 kbps , 0.109 bit/pixel
Аудио #1: Русский: 48 kHz, AC3 Dolby Digital, 3/2 (L,C,R,l,r) + LFE ch, ~384.00 kbps avg
Аудио #2: Русский: 48 kHz, MPEG Layer 2, 2 ch, ~192.00 kbps avg
MediaInfo
Общее
Идентификатор : 1 (0x1)
Полное имя : D:ЗаписьGadalka.HDTV(1080i).GeneralFilm1.Gadalka.HDTV(1080i).GeneralFilm.ts
Формат : MPEG-TS
Размер файла : 2,15 Гбайт
Продолжительность : 46 м. 12 с.
Режим общего битрейта : Переменный
Общий поток : 6660 Кбит/сек

Видео
Идентификатор : 1904 (0x770)
Идентификатор меню : 80 (0x50)
Формат : AVC
Формат/Информация : Advanced Video Codec
Профиль формата : High@L4
Параметр CABAC формата : Да
Параметр ReFrames формата : 3 кадра
Идентификатор кодека : 27
Продолжительность : 46 м. 12 с.
Битрейт : 5500 Кбит/сек
Ширина : 1920 пикселей
Высота : 1080 пикселей
Соотношение сторон : 16:9
Частота кадров : 25,000 кадров/сек
Стандарт вещания : Component
Цветовое пространство : YUV
Субдискретизация насыщенности : 4:2:0
Битовая глубина : 8 бит
Тип развёртки : Чересстрочная
Метод сохранения типа развёртки : Раздельные поля
Порядок развёртки : Верхнее поле первое
Бит/(Пиксели*Кадры) : 0.109
Размер потока : 1,86 Гбайт (86%)
Цветовой диапазон : Limited
Основные цвета : BT.709
Характеристики трансфера : BT.709
Коэффициенты матрицы : BT.709

Аудио #1
Идентификатор : 2904 (0xB58)
Идентификатор меню : 80 (0x50)
Формат : AC-3
Формат/Информация : Audio Coding 3
Расширение режима : CM (complete main)
Параметр Endianness формата : Big
Идентификатор кодека : 6
Продолжительность : 46 м. 12 с.
Вид битрейта : Постоянный
Битрейт : 384 Кбит/сек
Каналы : 6 каналов
Расположение каналов : Front: L C R, Side: L R, LFE
Частота : 48,0 КГц
Частота кадров : 31,250 кадров/сек (1536 spf)
Битовая глубина : 16 бит
Метод сжатия : С потерями
Задержка видео : -120 мс.
Размер потока : 127 Мбайт (6%)
Язык : Russian

Аудио #2
Идентификатор : 2905 (0xB59)
Идентификатор меню : 80 (0x50)
Формат : MPEG Audio
Версия формата : Version 1
Профиль формата : Layer 2
Идентификатор кодека : 3
Продолжительность : 46 м. 12 с.
Вид битрейта : Постоянный
Битрейт : 192 Кбит/сек
Каналы : 2 канала
Частота : 48,0 КГц
Метод сжатия : С потерями
Задержка видео : -120 мс.
Размер потока : 63,5 Мбайт (3%)
Язык : Russian

Информация о торренте:
Размер содержимого: 37.0 GB
Скачан: 181 раз
Статус: Проверен
Зарегистрирован на трекере: 2019-03-08 09:37
Скачать торрент


Поддержи раздачу — поставь лайк:
BLIZNEC W
2019-02-11 19:54
Интересного и приятного просмотра!!!

Мои раздачи
Писать комментарии на нашем торрент-трекере могут только зарегистрированные пользователи.
Зарегистрируйтесь или авторизируйтесь на сайте.