»
»

Скачать прикол Уральские пельмени. Пляжный шизон (Эфир от 08.02.2019) (СТС ) / [2019, ТВ-шоу, юмор , WEB-DLRip 1080p] - торрент

Скачать торрент прикол можно, нажав на синюю кнопку ниже. Прикол доступен на нашем торрент-трекере бесплатно, без регистрации и смс.

Статистика раздачи
498 [ 58.0 KB/s ] ↑ 2.4 GB ↓ 1 [ 100.0 KB/s ]
Автор Сообщение
Lacky1907
2019-02-09 09:07
Уральские пельмени. Пляжный шизон (Эфир от 08.02.2019)
Уральские пельмени. Пляжный шизон
Перевод: Не требуется, субтитры: отсутствуют
Формат: WEB-DLRip 1080p, MKV, H.264, AC3
Страна: Россия
Режиссер: СТС
Жанр: ТВ-шоу, юмор
Продолжительность: 01:11:27
Год выпуска: 2019

Описание: Когда буйки становятся ближе, когда ложишься спать обмазанным сметаной, когда диета разбивается об олинклюзив, когда чемоданы заполняются не нужными сувенирами. Тогда наступает «Пляжный шизон» в новой программе от Шоу «Уральские Пельмени»

Видео: 1920x1080 (16:9), 25 fps, AVC (x264) High@L4, ~4614 kbps avg, 0.089 bit/pixel
Аудио: 44 kHz, AC3, 2 ch, ~192.00 kbps avg

MediaInfo

Общее
Уникальный идентификатор : 194115610365815077234905621798477864324 (0x92094E81C573C39D8E10461A0DA79D84)
Полное имя : I:\Uralskie.pelmeni.Pljazhnyj.shizon08022019.1080p.mkv
Формат : Matroska
Версия формата : Version 4 / Version 2
Размер файла : 2,40 Гбайт
Продолжительность : 1 ч. 11 м.
Общий поток : 4808 Кбит/сек
Дата кодирования : UTC 2019-02-08 19:28:15
Программа кодирования : mkvmerge v9.6.0 ('Slave To Your Mind') 64bit
Библиотека кодирования : libebml v1.3.4 + libmatroska v1.4.5

Видео
Идентификатор : 1
Формат : AVC
Формат/Информация : Advanced Video Codec
Профиль формата : High@L4
Параметр CABAC формата : Да
Параметр ReFrames формата : 3 кадра
Идентификатор кодека : V_MPEG4/ISO/AVC
Продолжительность : 1 ч. 11 м.
Битрейт : 4614 Кбит/сек
Ширина : 1920 пикселей
Высота : 1080 пикселей
Соотношение сторон : 16:9
Режим частоты кадров : Постоянный
Частота кадров : 25,000 кадров/сек
Цветовое пространство : YUV
Субдискретизация насыщенности : 4:2:0
Битовая глубина : 8 бит
Тип развёртки : Прогрессивная
Бит/(Пиксели*Кадры) : 0.089
Размер потока : 2,30 Гбайт (96%)
Default : Да
Forced : Нет
Цветовой диапазон : Limited
Основные цвета : BT.709
Характеристики трансфера : BT.709
Коэффициенты матрицы : BT.709

Аудио
Идентификатор : 2
Формат : AC-3
Формат/Информация : Audio Coding 3
Параметр Endianness формата : Big
Идентификатор кодека : A_AC3
Продолжительность : 1 ч. 11 м.
Вид битрейта : Постоянный
Битрейт : 192 Кбит/сек
Каналы : 2 канала
Расположение каналов : Front: L R
Частота : 44,1 КГц
Частота кадров : 28,711 кадров/сек (1536 spf)
Битовая глубина : 16 бит
Метод сжатия : С потерями
Размер потока : 98,1 Мбайт (4%)
ServiceKind/String : Complete Main
Default : Да
Forced : Нет


Информация о торренте:
Размер содержимого: 2.4 GB
Скачан: 470 раз
Статус: Проверен
Зарегистрирован на трекере: 2019-02-09 08:07
Скачать торрент


Поддержи раздачу — поставь лайк:
Писать комментарии на нашем торрент-трекере могут только зарегистрированные пользователи.
Зарегистрируйтесь или авторизируйтесь на сайте.