»
»

Скачать прикол Уральские пельмени. Пляжный шизон (Эфир от 08.02.2019) (СТС) / [2019, ТВ-шоу, юмор, WEB-DL 720p] - торрент

Нажмите на синюю кнопку ниже, чтобы скачать прикол бесплатно через торрент. Прикол доступен на нашем торрент-трекере бесплатно, без регистрации и смс.

Статистика раздачи
72 [ 45.0 KB/s ] ↑ 1.3 GB ↓ 0 [ 0 b/s ]
Автор Сообщение
kupper2201
2019-02-09 07:40
Уральские пельмени. Пляжный шизон (Эфир от 08.02.2019)
Уральские пельмени. Пляжный шизон Перевод: Не требуется, cубтитры: отсутствуют
Формат: WEB-DL 720p, MKV, H.264, AC3
Страна: Россия
Режиссер: СТС
Жанр: ТВ-шоу, юмор
Продолжительность: 01:10:27
Год выпуска: 2019

Описание: Когда буйки становятся ближе, когда ложишься спать обмазанным сметаной, когда диета разбивается об олинклюзив, когда чемоданы заполняются не нужными сувенирами. Тогда наступает «Пляжный шизон» в новой программе от Шоу «Уральские Пельмени»

Видео: 1280x720 (16:9), 25 fps, AVC (x264) Main@L3.1 , ~2430 kbps avg, 0.105 bit/pixel
Аудио: 44 kHz, AC3, 2 ch, ~192.00 kbps avg
Доп. информация:

Mediainfo
Общее
Уникальный идентификатор : 246031795112424658707628114774192154232 (0xB9180009B0486DF98D9FF60F9251E678)
Полное имя : C:\Admin\Downloads\Uralskie.Pelmeni.Pyazhnyy.shizon.(08.02.2019).WEB-DL.(720р).Kinozal-Reliz.by.Olyanchik.mkv
Формат : Matroska
Версия формата : Version 4 / Version 2
Размер файла : 1,31 Гбайт
Продолжительность : 1 ч. 11 м.
Общий поток : 2624 Кбит/сек
Дата кодирования : UTC 2019-02-08 19:31:32
Программа кодирования : mkvmerge v9.6.0 ('Slave To Your Mind') 64bit
Библиотека кодирования : libebml v1.3.4 + libmatroska v1.4.5

Видео
Идентификатор : 1
Формат : AVC
Формат/Информация : Advanced Video Codec
Профиль формата : Main@L3.1
Настройки формата : CABAC / 3 Ref Frames
Параметр CABAC формата : Да
Параметр RefFrames формата : 3 кадра
Идентификатор кодека : V_MPEG4/ISO/AVC
Продолжительность : 1 ч. 11 м.
Битрейт : 2430 Кбит/сек
Ширина : 1280 пикселей
Высота : 720 пикселей
Соотношение сторон : 16:9
Режим частоты кадров : Постоянный
Частота кадров : 25,000 кадров/сек
Цветовое пространство : YUV
Субдискретизация насыщенности : 4:2:0
Битовая глубина : 8 бит
Тип развёртки : Прогрессивная
Бит/(Пиксели*Кадры) : 0.105
Размер потока : 1,21 Гбайт (93%)
Default : Да
Forced : Нет
Цветовой диапазон : Limited
Основные цвета : BT.709
Характеристики трансфера : BT.709
Коэффициенты матрицы : BT.709

Аудио
Идентификатор : 2
Формат : AC-3
Формат/Информация : Audio Coding 3
Идентификатор кодека : A_AC3
Продолжительность : 1 ч. 11 м.
Вид битрейта : Постоянный
Битрейт : 192 Кбит/сек
Каналы : 2 канала
Расположение каналов : Front: L R
Частота : 44,1 КГц
Частота кадров : 28,711 кадров/сек (1536 SPF)
Битовая глубина : 16 бит
Метод сжатия : С потерями
Размер потока : 98,1 Мбайт (7%)
ServiceKind/String : Complete Main
Default : Да
Forced : Нет

Информация о торренте:
Размер содержимого: 1.3 GB
Скачан: 375 раз
Статус: Проверен
Зарегистрирован на трекере: 2019-02-09 06:40
Скачать торрент


Поддержи раздачу — поставь лайк:
Писать комментарии на нашем торрент-трекере могут только зарегистрированные пользователи.
Зарегистрируйтесь или авторизируйтесь на сайте.