»
»

Скачать фильм Седьмой спутник (Виктор Турбин) / [1962, драма, экранизация, SATRip-AVC] - торрент

Торрент можно скачать, нажав синюю кнопку ниже. Фильм доступен на нашем торрент-трекере бесплатно, без регистрации и смс.

Статистика раздачи
0 [ 0 b/s ] ↑ 744.7 MB ↓ 0 [ 0 b/s ]
Автор Сообщение
BLIZNEC W
2019-02-04 19:16
Седьмой спутник
Седьмой спутник Формат: SATRip-AVC, MKV, H.264, AC3
Режиссер: Виктор Турбин
Жанр: драма, экранизация
Продолжительность: 00:54:47
Год выпуска: 1962

В ролях: Юрий (Георгий) Кольцов, Вячеслав Невинный, Леонид Губанов, Марк Прудкин, Сергей Блинников, Владимир Муравьёв, Павел Винников, Анна Коломийцева (Блинникова), Клементина Ростовцева, Валериан Квачадзе, Юрий Пузырёв, Игорь Терешин, Пётр Кудлай, Анатолий Вербицкий, Юрий Леонидов, Николай Алексеев, Виктор Петров, Георгий Епифанцев

Описание: По одноименной повести Б.Лавренева. Передовой русский интеллигент Евгений Павлович Адамов еще в 1905 году, будучи военным прокурором Севастополя, отказался поддерживать обвинение в суде против революционеров. Однако в первые месяцы советской власти он не до конца принял революцию и находился в роли пассивного наблюдателя. Осознав свой долг перед народом, Адамов сражается против контрреволюции и погибает в рядах защитников революционного Петрограда.

Рейтинг и доп. информация:


Видео: 704->1013x570, (16:9), 25 fps, AVC MPEG-4 (x264), High@L4.1 ~ 1707 kbps , 0.170 bit/pixel
Аудио: 48 kHz, АС3, 2/0 (L,R), ~192.00 kbps avg
MediaInfo
Общее
Полное имя : Sedmoy.sputnik.1962.SATRip-AVC_[New-team]_by_AVP_Studio.mkv
Формат : Matroska
Версия формата : Version 2
Размер файла : 745 Мбайт
Продолжительность : 54 м. 46 с.
Общий поток : 1901 Кбит/сек
Дата кодирования : UTC 2019-01-31 15:41:03
Программа кодирования : mkvmerge v6.1.0 ('Old Devil') built on Mar 4 2013 09:10:42
Библиотека кодирования : libebml v1.3.0 + libmatroska v1.4.0

Видео
Идентификатор : 1
Формат : AVC
Формат/Информация : Advanced Video Codec
Профиль формата : High@L4.1
Настройки формата : CABAC / 10 Ref Frames
Параметр CABAC формата : Да
Параметр RefFrames формата : 10 кадров
Идентификатор кодека : V_MPEG4/ISO/AVC
Продолжительность : 54 м. 46 с.
Битрейт : 1707 Кбит/сек
Ширина : 704 пикселя
Высота : 570 пикселей
Соотношение сторон : 16:9
Режим частоты кадров : Постоянный
Частота кадров : 25,000 кадров/сек
Цветовое пространство : YUV
Субдискретизация насыщенности : 4:2:0
Битовая глубина : 8 бит
Тип развёртки : Прогрессивная
Бит/(Пиксели*Кадры) : 0.170
Размер потока : 655 Мбайт (88%)
Библиотека кодирования : x264 core 157 r2932 303c484
Настройки программы : cabac=1 / ref=10 / deblock=1:-2:-1 / analyse=0x3:0x113 / me=umh / subme=10 / psy=1 / psy_rd=1.00:0.00 / mixed_ref=1 / me_range=32 / chroma_me=1 / trellis=2 / 8x8dct=1 / cqm=0 / deadzone=21,11 / fast_pskip=1 / chroma_qp_offset=-2 / threads=6 / lookahead_threads=1 / sliced_threads=0 / nr=0 / decimate=0 / interlaced=0 / bluray_compat=0 / constrained_intra=0 / bframes=8 / b_pyramid=2 / b_adapt=2 / b_bias=0 / direct=3 / weightb=1 / open_gop=0 / weightp=2 / keyint=250 / keyint_min=25 / scenecut=40 / intra_refresh=0 / rc=2pass / mbtree=0 / bitrate=1707 / ratetol=1.0 / qcomp=0.60 / qpmin=0 / qpmax=69 / qpstep=4 / cplxblur=20.0 / qblur=0.5 / ip_ratio=1.40 / pb_ratio=1.30 / aq=1:1.00
Default : Да
Forced : Нет

Аудио
Идентификатор : 2
Формат : AC-3
Формат/Информация : Audio Coding 3
Коммерческое название : Dolby Digital
Идентификатор кодека : A_AC3
Продолжительность : 54 м. 46 с.
Вид битрейта : Постоянный
Битрейт : 192 Кбит/сек
Каналы : 2 канала
Channel layout : L R
Частота : 48,0 КГц
Частота кадров : 31,250 кадров/сек (1536 SPF)
Битовая глубина : 16 бит
Метод сжатия : С потерями
Размер потока : 75,2 Мбайт (10%)
Default : Да
Forced : Нет

Информация о торренте:
Размер содержимого: 744.7 MB
Скачан: 139 раз
Статус: Проверен
Зарегистрирован на трекере: 2019-02-04 18:16
Скачать торрент


Поддержи раздачу — поставь лайк:
BLIZNEC W
2019-02-04 18:16
Интересного и приятного просмотра!!!

Мои раздачи
Писать комментарии на нашем торрент-трекере могут только зарегистрированные пользователи.
Зарегистрируйтесь или авторизируйтесь на сайте.