»
»

Скачать фильм Прошлым летом (Виктор Трегубович) / [1962, короткометражка, SATRip-AVC] - торрент

Бесплатные торренты всегда на нашем сайте и в хорошем качестве! Фильм доступен на нашем торрент-трекере бесплатно, без регистрации и смс.

Статистика раздачи
0 [ 0 b/s ] ↑ 372.1 MB ↓ 1 [ 0 b/s ]
Автор Сообщение
BLIZNEC W
2019-02-03 14:22
Прошлым летом
Прошлым летом Формат: SATRip-AVC, MKV, H.264, AC3
Режиссер: Виктор Трегубович
Жанр: короткометражка
Продолжительность: 00:28:43
Год выпуска: 1962

В ролях: Татьяна Никитина (III), Семён Морозов, Виталий Каневский, Людмила Колпакова, Долорес Столбова

Описание: Выпуск фильма – 17 июня 1963 г. О том, что Гриша и Полина любят друг друга, уже знает вся деревня. Скрывать свои чувства и поздно и глупо – так думает Полина, а Гриша пока еще не решил, кто для него важнее – старые дружки или эта девчонка, которая даже не может постоять за себя.

Рейтинг и доп. информация:


Видео: 704->752, (4:3), 25 fps, AVC MPEG-4 (x264), High@L4.1 ~ 1619 kbps , 0.163 bit/pixel
Аудио: 48 kHz, АС3, 2/0 (L,R), ~192.00 kbps avg
MediaInfo
Общее
Полное имя : Proshlym.letom.1962.SATRip-AVC_[New-team]_by_AVP_Studio.mkv
Формат : Matroska
Версия формата : Version 2
Размер файла : 372 Мбайт
Продолжительность : 28 м. 42 с.
Общий поток : 1812 Кбит/сек
Дата кодирования : UTC 2019-01-31 11:57:26
Программа кодирования : mkvmerge v6.1.0 ('Old Devil') built on Mar 4 2013 09:10:42
Библиотека кодирования : libebml v1.3.0 + libmatroska v1.4.0

Видео
Идентификатор : 1
Формат : AVC
Формат/Информация : Advanced Video Codec
Профиль формата : High@L4.1
Настройки формата : CABAC / 10 Ref Frames
Параметр CABAC формата : Да
Параметр RefFrames формата : 10 кадров
Идентификатор кодека : V_MPEG4/ISO/AVC
Продолжительность : 28 м. 42 с.
Битрейт : 1619 Кбит/сек
Ширина : 704 пикселя
Высота : 564 пикселя
Соотношение сторон : 4:3
Режим частоты кадров : Постоянный
Частота кадров : 25,000 кадров/сек
Цветовое пространство : YUV
Субдискретизация насыщенности : 4:2:0
Битовая глубина : 8 бит
Тип развёртки : Прогрессивная
Бит/(Пиксели*Кадры) : 0.163
Размер потока : 325 Мбайт (87%)
Библиотека кодирования : x264 core 157 r2932 303c484
Настройки программы : cabac=1 / ref=10 / deblock=1:-2:-1 / analyse=0x3:0x113 / me=umh / subme=10 / psy=1 / psy_rd=1.00:0.00 / mixed_ref=1 / me_range=32 / chroma_me=1 / trellis=2 / 8x8dct=1 / cqm=0 / deadzone=21,11 / fast_pskip=1 / chroma_qp_offset=-2 / threads=6 / lookahead_threads=1 / sliced_threads=0 / nr=0 / decimate=0 / interlaced=0 / bluray_compat=0 / constrained_intra=0 / bframes=8 / b_pyramid=2 / b_adapt=2 / b_bias=0 / direct=3 / weightb=1 / open_gop=0 / weightp=2 / keyint=250 / keyint_min=25 / scenecut=40 / intra_refresh=0 / rc=2pass / mbtree=0 / bitrate=1619 / ratetol=1.0 / qcomp=0.60 / qpmin=0 / qpmax=69 / qpstep=4 / cplxblur=20.0 / qblur=0.5 / ip_ratio=1.40 / pb_ratio=1.30 / aq=1:1.00
Default : Да
Forced : Нет

Аудио
Идентификатор : 2
Формат : AC-3
Формат/Информация : Audio Coding 3
Коммерческое название : Dolby Digital
Идентификатор кодека : A_AC3
Продолжительность : 28 м. 42 с.
Вид битрейта : Постоянный
Битрейт : 192 Кбит/сек
Каналы : 2 канала
Channel layout : L R
Частота : 48,0 КГц
Частота кадров : 31,250 кадров/сек (1536 SPF)
Битовая глубина : 16 бит
Метод сжатия : С потерями
Размер потока : 39,4 Мбайт (11%)
Default : Да
Forced : Нет

Информация о торренте:
Размер содержимого: 372.1 MB
Скачан: 58 раз
Статус: Проверен
Зарегистрирован на трекере: 2019-02-03 13:22
Скачать торрент


Поддержи раздачу — поставь лайк:
BLIZNEC W
2019-02-03 13:22
Интересного и приятного просмотра!!!

Мои раздачи
Писать комментарии на нашем торрент-трекере могут только зарегистрированные пользователи.
Зарегистрируйтесь или авторизируйтесь на сайте.