»
»

Скачать мультфильм Эллиот / Elliot the Littlest Reindeer (Дженнифер Весткотт) [2018, мультфильм, семейный, WEB-DLRip-AVC] DUB - торрент

Скачать мультфильм бесплатно через торрент. Мультфильм доступен на нашем торрент-трекере бесплатно, без регистрации и смс.

Статистика раздачи
10 [ 0 b/s ] ↑ 1.4 GB ↓ 0 [ 0 b/s ]
Автор Сообщение
tolocar
2019-02-02 17:20
Эллиот / Elliot the Littlest Reindeer
Эллиот / Elliot the Littlest Reindeer Перевод: Профессиональный (полное дублирование) [iTunes], cубтитры: отсутствуют
Формат: WEB-DLRip-AVC, MKV, H.264, AC3
Страна: Канада
Режиссер: Дженнифер Весткотт
Жанр: мультфильм, семейный
Продолжительность: 01:29:42
Год выпуска: 2018
В ролях: Джош Хатчерсон, Морена Баккарин, Джон Клиз, Мартин Шорт, Кристофер Жако, Джефф Данэм, Джин Юн, Саманта Би, Джордж Бьюза, Роберт Тинклер

Описание: Знакомьтесь: Эллиот — маленькая лошадка с большой мечтой. Ему так хочется занять место одного из северных оленей в упряжке Санты и дарить детям радость! У него есть всего 3 дня, чтобы доказать окружающим, что он достоин стать одним из них, даже если рогами не вышел! Ведь если чего-то хочешь по-настоящему, то чудеса случаются непременно!

[imdb=https://www.imdb.com/title/tt4177856/]


Видео: 1024x428 (2,40:1), 24,000 fps, AVC MPEG-4, High@L4.1 ~ 1859 Кбит/сек, 0.177 bit/pixel
Аудио: 48 kHz, AC3 6ch (L, R, C, LFE) ~384 kbps



ОтчетМедиаИнфо
Общее
Уникальный идентификатор : 37755550075715753715104874930481223893 (0x1C6774568EBB114C225B90960D1958D5)
Полное имя : C:\Elliot.the.Littlest.Reindeer.2018.WEB-DLRip(AVC).mkv
Формат : Matroska
Версия формата : Version 4
Размер файла : 1,41 Гбайт
Продолжительность : 1 ч. 29 м.
Общий поток : 2244 Кбит/сек
Название фильма : ELLIOT_2018 #TorpedoUK#
Дата кодирования : UTC 2019-02-02 08:37:00
Программа кодирования : mkvmerge v29.0.0 ('Like It Or Not') 64-bit
Библиотека кодирования : libebml v1.3.6 + libmatroska v1.4.9

Видео
Идентификатор : 1
Формат : AVC
Формат/Информация : Advanced Video Codec
Профиль формата : High@L4.1
Настройки формата : CABAC / 10 Ref Frames
Параметр CABAC формата : Да
Параметр RefFrames формата : 10 кадров
Идентификатор кодека : V_MPEG4/ISO/AVC
Продолжительность : 1 ч. 29 м.
Битрейт : 1859 Кбит/сек
Ширина : 1024 пикселя
Высота : 428 пикселей
Соотношение сторон : 2,40:1
Режим частоты кадров : Постоянный
Частота кадров : 24,000 кадра/сек
Цветовое пространство : YUV
Субдискретизация насыщенности : 4:2:0
Битовая глубина : 8 бит
Тип развёртки : Прогрессивная
Бит/(Пиксели*Кадры) : 0.177
Размер потока : 1,16 Гбайт (83%)
Библиотека кодирования : x264 core 146 r2538 121396c
Настройки программы : cabac=1 / ref=10 / deblock=1:-3:-3 / analyse=0x3:0x113 / me=umh / subme=10 / psy=1 / psy_rd=0.97:0.05 / mixed_ref=1 / me_range=48 / chroma_me=1 / trellis=2 / 8x8dct=1 / cqm=0 / deadzone=21,11 / fast_pskip=1 / chroma_qp_offset=-3 / threads=6 / lookahead_threads=1 / sliced_threads=0 / nr=0 / decimate=1 / interlaced=0 / bluray_compat=0 / constrained_intra=0 / bframes=11 / b_pyramid=2 / b_adapt=2 / b_bias=0 / direct=3 / weightb=1 / open_gop=0 / weightp=2 / keyint=240 / keyint_min=24 / scenecut=40 / intra_refresh=0 / rc_lookahead=40 / rc=2pass / mbtree=0 / bitrate=1859 / ratetol=1.0 / qcomp=0.60 / qpmin=0 / qpmax=69 / qpstep=4 / cplxblur=20.0 / qblur=0.5 / vbv_maxrate=50000 / vbv_bufsize=62500 / nal_hrd=none / filler=0 / ip_ratio=1.40 / pb_ratio=1.30 / aq=1:1.00
Язык : English
Default : Да
Forced : Нет

Аудио
Идентификатор : 2
Формат : AC-3
Формат/Информация : Audio Coding 3
Коммерческое название : Dolby Digital
Идентификатор кодека : A_AC3
Продолжительность : 1 ч. 29 м.
Вид битрейта : Постоянный
Битрейт : 384 Кбит/сек
Каналы : 6 каналов
Channel layout : L R C LFE Ls Rs
Частота : 48,0 КГц
Частота кадров : 31,250 кадров/сек (1536 SPF)
Битовая глубина : 16 бит
Метод сжатия : С потерями
Размер потока : 246 Мбайт (17%)
Заголовок : [DUB] DD 5.1 @ 384 kbps (iTunes)
Язык : Russian
ServiceKind/String : Complete Main
Default : Да
Forced : Нет

Меню
00:00:00.000 : en:Глава 1
00:08:04.375 : en:Глава 2
00:17:07.000 : en:Глава 3
00:25:18.458 : en:Глава 4
00:33:37.208 : en:Глава 5
00:42:24.958 : en:Глава 6
00:50:30.874 : en:Глава 7
00:59:09.665 : en:Глава 8
01:07:17.956 : en:Глава 9
01:16:07.831 : en:Глава 10


Информация о торренте:
Размер содержимого: 1.4 GB
Скачан: 632 раза
Статус: Проверен
Зарегистрирован на трекере: 2019-02-02 16:20
Скачать торрент


Поддержи раздачу — поставь лайк:
Алексей Лобанов
2019-02-03 20:18
Скриншоты должны быть некликабльные. Исправьте, пожалуйста.
Писать комментарии на нашем торрент-трекере могут только зарегистрированные пользователи.
Зарегистрируйтесь или авторизируйтесь на сайте.