»
»

Скачать фильм Парадокс Кловерфилда / The Cloverfield Paradox (Джулиус Она) [2018, ужасы, фантастика, триллер, детектив, BDRemux 1080p] 2xMVO+VO - торрент

Нажмите синюю кнопку, чтобы cкачать бесплатно через торрент фильм. Фильм доступен на нашем торрент-трекере бесплатно, без регистрации и смс.

Статистика раздачи
5 [ 11.0 KB/s ] ↑ 22.8 GB ↓ 0 [ 0 b/s ]
Автор Сообщение
rainbow.n
2019-02-02 11:34
Парадокс Кловерфилда / The Cloverfield Paradox
Парадокс Кловерфилда / The Cloverfield Paradox Перевод: Профессиональный (многоголосый, закадровый)
Cубтитры: русские, английскиe
Формат: BDRemux, MKV, H.264, AC3/True-HD
Страна: США
Режиссер: Джулиус Она
Жанр: ужасы, фантастика, триллер, детектив
Продолжительность: 2018
Год выпуска: 2018

В ролях: Гугу Эмбата-Ро, Дэвид Ойелоуо, Даниэль Брюль, Крис О’Дауд, Аксель Хенни, Чжан Цзыи, Элизабет Дебики, Роджер Дейвис, Джон Ортис, Jordan Rivera

Описание: В то время как земной мир пребывает на грани войны за ресурсы, в космосе группа учёных проводит испытания устройства, которое способно решить проблему энергетического кризиса. Несколько неудачных попыток вводят учёных в отчаяние. Топлива осталось на три запуска, и когда вдруг происходит удачный запуск устройства, радость длится недолго — команде предстоит иметь дело с очень странными явлениями.

5,6/10 77 919

Видео: 1920x1080p (16:9), 23.976 fps, AVC MPEG4 (x264), High@L4.1 ~ 25,5 Mbps, 0.513 bit/pixel

Аудио#1: Русский: 48 kHz, AC3, 3/2 (L,C,R,l,r) + LFE ch, ~384 kbps avg [Профессиональный (многоголосый, закадровый) NewStudio]
Аудио#2: Русский: 48 kHz, AC3, 3/2 (L,C,R,l,r) + LFE ch, ~384 kbps avg [Профессиональный (многоголосый, закадровый) Jaskier]
Аудио#3: Русский: 48 kHz, AC3, 3/2 (L,C,R,l,r) + LFE ch, ~448 kbps avg [Любительский (одноголосый) BadBajo]
Аудио#4: Английский: 48 kHz, Dolby TrueHD Audio, 8 ch, ~ 4534 kbps, 24-bit (AC3 Core: 5.1, 48 kHz, 640 kbps, 24-bit) [Оригинал]
Аудио#5: Английский: 48 kHz, AC3, 3/2 (L,C,R,l,r) + LFE ch, ~640 kbps avg [Оригинал]
MI
Общее
Уникальный идентификатор : 191179706574664442377326031536849717686 (0x8FD3DF4636CB06978BA2E804BE0489B6)
Полное имя : D:\The.Cloverfield.Paradox.2018.Remux.mkv
Формат : Matroska
Версия формата : Version 4 / Version 2
Размер файла : 22,8 Гбайт
Продолжительность : 1 ч. 41 м.
Режим общего битрейта : Переменный
Общий поток : 32,1 Мбит/сек
Дата кодирования : UTC 2019-02-02 04:54:53
Программа кодирования : mkvmerge v7.1.0 ('Good Love') 32bit built on Jul 27 2014 12:59:18
Библиотека кодирования : libebml v1.3.0 + libmatroska v1.4.1

Видео
Идентификатор : 1
Формат : AVC
Формат/Информация : Advanced Video Codec
Профиль формата : High@L4.1
Параметр CABAC формата : Да
Параметр RefFrames формата : 4 кадра
Идентификатор кодека : V_MPEG4/ISO/AVC
Продолжительность : 1 ч. 41 м.
Вид битрейта : Переменный
Битрейт : 25,5 Мбит/сек
Максимальный битрейт : 28,4 Мбит/сек
Ширина : 1920 пикселей
Высота : 1080 пикселей
Соотношение сторон : 16:9
Режим частоты кадров : Постоянный
Частота кадров : 23,976 (24000/1001) кадра/сек
Цветовое пространство : YUV
Субдискретизация насыщенности : 4:2:0
Битовая глубина : 8 бит
Тип развёртки : Прогрессивная
Бит/(Пиксели*Кадры) : 0.513
Размер потока : 18,1 Гбайт (80%)
Язык : English
Default : Да
Forced : Нет

Аудио #1
Идентификатор : 2
Формат : AC-3
Формат/Информация : Audio Coding 3
Параметр Endianness формата : Big
Идентификатор кодека : A_AC3
Продолжительность : 1 ч. 41 м.
Вид битрейта : Постоянный
Битрейт : 384 Кбит/сек
Каналы : 6 каналов
Расположение каналов : Front: L C R, Side: L R, LFE
Частота : 48,0 КГц
Частота кадров : 31,250 кадров/сек (1536 SPF)
Битовая глубина : 16 бит
Метод сжатия : С потерями
Размер потока : 280 Мбайт (1%)
Заголовок : MVO
Язык : Russian
ServiceKind/String : Complete Main
Default : Да
Forced : Да

Аудио #2
Идентификатор : 3
Формат : AC-3
Формат/Информация : Audio Coding 3
Параметр Endianness формата : Big
Идентификатор кодека : A_AC3
Продолжительность : 1 ч. 41 м.
Вид битрейта : Постоянный
Битрейт : 384 Кбит/сек
Каналы : 6 каналов
Расположение каналов : Front: L C R, Side: L R, LFE
Частота : 48,0 КГц
Частота кадров : 31,250 кадров/сек (1536 SPF)
Битовая глубина : 16 бит
Метод сжатия : С потерями
Размер потока : 280 Мбайт (1%)
Заголовок : MVO
Язык : Russian
ServiceKind/String : Complete Main
Default : Нет
Forced : Нет

Аудио #3
Идентификатор : 4
Формат : AC-3
Формат/Информация : Audio Coding 3
Параметр Endianness формата : Big
Идентификатор кодека : A_AC3
Продолжительность : 1 ч. 41 м.
Вид битрейта : Постоянный
Битрейт : 448 Кбит/сек
Каналы : 6 каналов
Расположение каналов : Front: L C R, Side: L R, LFE
Частота : 48,0 КГц
Частота кадров : 31,250 кадров/сек (1536 SPF)
Битовая глубина : 16 бит
Метод сжатия : С потерями
Размер потока : 326 Мбайт (1%)
Заголовок : VO
Язык : Russian
ServiceKind/String : Complete Main
Default : Нет
Forced : Нет

Аудио #4
Идентификатор : 5
Формат : TrueHD
Профиль формата : TrueHD+Atmos / TrueHD
Идентификатор кодека : A_TRUEHD
Продолжительность : 1 ч. 41 м.
Вид битрейта : Переменный
Битрейт : 4631 Кбит/сек
Максимальный битрейт : 8757 Кбит/сек
Каналы : Object Based / 8 каналов
Расположение каналов : Object Based / Front: L C R, Side: L R, Back: L R, LFE
Частота : / 48,0 КГц
Частота кадров : 1200,000 кадров/сек (40 SPF)
Метод сжатия : Без потерь
Размер потока : 3,29 Гбайт (14%)
Язык : English
Default : Нет
Forced : Нет

Аудио #5
Идентификатор : 6
Формат : AC-3
Формат/Информация : Audio Coding 3
Параметр Endianness формата : Big
Идентификатор кодека : A_AC3
Продолжительность : 1 ч. 41 м.
Вид битрейта : Постоянный
Битрейт : 640 Кбит/сек
Каналы : 6 каналов
Расположение каналов : Front: L C R, Side: L R, LFE
Частота : 48,0 КГц
Частота кадров : 31,250 кадров/сек (1536 SPF)
Битовая глубина : 16 бит
Метод сжатия : С потерями
Размер потока : 466 Мбайт (2%)
Язык : English
ServiceKind/String : Complete Main
Default : Нет
Forced : Нет

Текст #1
Идентификатор : 7
Формат : UTF-8
Идентификатор кодека : S_TEXT/UTF8
Идентификатор кодека/Информация : UTF-8 Plain Text
Продолжительность : 1 ч. 39 м.
Битрейт : 76 бит/сек
ElementCount : 1166
Размер потока : 55,7 Кбайт (0%)
Язык : Russian
Default : Нет
Forced : Нет

Текст #2
Идентификатор : 8
Формат : UTF-8
Идентификатор кодека : S_TEXT/UTF8
Идентификатор кодека/Информация : UTF-8 Plain Text
Продолжительность : 1 ч. 35 м.
Битрейт : 47 бит/сек
ElementCount : 1123
Размер потока : 33,5 Кбайт (0%)
Язык : English
Default : Нет
Forced : Нет

Меню
00:00:00.000 : en:Chapter 1
00:07:12.974 : en:Chapter 2
00:11:27.562 : en:Chapter 3
00:16:43.252 : en:Chapter 4
00:22:24.426 : en:Chapter 5
00:30:01.842 : en:Chapter 6
00:34:28.650 : en:Chapter 7
00:38:57.919 : en:Chapter 8
00:45:57.004 : en:Chapter 9
00:50:46.919 : en:Chapter 10
00:55:23.779 : en:Chapter 11
01:04:00.503 : en:Chapter 12
01:10:28.433 : en:Chapter 13
01:19:29.974 : en:Chapter 14
01:25:49.978 : en:Chapter 15
01:32:21.161 : en:Chapter 16
01:36:26.114 : en:Chapter 17


Информация о торренте:
Размер содержимого: 22.8 GB
Скачан: 227 раз
Статус: Проверен
Зарегистрирован на трекере: 2019-02-02 10:34
Скачать торрент


Поддержи раздачу — поставь лайк:

liudochka
2019-03-04 18:36
Понравился :nice:
Писать комментарии на нашем торрент-трекере могут только зарегистрированные пользователи.
Зарегистрируйтесь или авторизируйтесь на сайте.