»
»

Скачать фильм Сделай шаг / Make It Happen (Даррен Грант) [2008, драма, BDRemux 1080p] DUB - торрент

Нажмите синюю кнопку, чтобы cкачать бесплатно через торрент фильм. Фильм доступен на нашем торрент-трекере бесплатно, без регистрации и смс.

Статистика раздачи
0 [ 0 b/s ] ↑ 15.2 GB ↓ 0 [ 0 b/s ]
Автор Сообщение
rainbow.n
2019-01-31 18:05
Сделай шаг / Make It Happen
Сделай шаг / Make It Happen Перевод: Профессиональный (полное дублирование)
Cубтитры: русские, английскиe
Формат: BDRemux, MKV, AC3/DTS-HD (HR)
Страна: США
Режиссер: Даррен Грант
Жанр: драма
Продолжительность: 01:30:00
Год выпуска: 2008

В ролях: Мэри Элизабет Уинстэд, Тесса Томпсон, Райли Смит, Джон Генри Рирдон, Юлисса Бермудез, Эшли Робертс, Карен ЛеБланк, Мэтт Киппен, Эрик Фйелдстед, Аарон Мерке

Описание: Лорин, молодая девушка из Индианы, отправлялась в Чикаго с мечтой поступить в Чикагскую Школу Музыки и Танца. Но после неудачи на вступительном конкурсе она вынуждена работать в бурлеск-клубе. Который оказывается местом, позволяющим Лорин понять: планы могут измениться, а мечты — никогда.

5,5/10 5 702

Видео: 1920x1080p (16:9), 23.976 fps, AVC MPEG4 (x264), High@L4.1 ~ 20.5 Mbps, 0.411 bit/pixel

Аудио#: Русский: 48 kHz, (AC3), 6 ch, ~ 384 kbps [Профессиональный (полное дублирование)]
Аудио#: Английский: 48 kHz, DTS-HD High Resolution, 6 ch, ~ 2815 kbps, 24-bit (DTS Core: 5.1 ch, 48 kHz, 1509 kbps, 24-bit) [Оригинал]
MI
Complete name : L:\HD-Films\Make.It.Happen.BluRay.Remux.dtshr.AC3.h264.mkv
Format : Matroska
File size : 15.2 GiB
Duration : 1h 30mn
Overall bit rate : 24.1 Mbps
Movie name : AngeL
Encoded date : UTC 2011-04-12 11:51:48
Writing application : mkvmerge v4.6.0 ('Still Crazy After All These Years') built on Mar 10 2011 02:50:32
Writing library : libebml v1.2.0 + libmatroska v1.1.0

Video
ID : 1
Format : AVC
Format/Info : Advanced Video Codec
Format profile : High@L4.1
Format settings, CABAC : Yes
Format settings, ReFrames : 4 frames
Muxing mode : Container profile=Unknown@0.0
Codec ID : V_MPEG4/ISO/AVC
Duration : 1h 30mn
Bit rate mode : Variable
Bit rate : 20.5 Mbps
Maximum bit rate : 32.0 Mbps
Width : 1 920 pixels
Height : 1 080 pixels
Display aspect ratio : 16:9
Frame rate : 23.976 fps
Standard : NTSC
Color space : YUV
Chroma subsampling : 4:2:0
Bit depth : 8 bits
Scan type : Progressive
Bits/(Pixel*Frame) : 0.411
Stream size : 12.9 GiB (85%)
Color primaries : BT.709-5, BT.1361, IEC 61966-2-4, SMPTE RP177
Transfer characteristics : BT.709-5, BT.1361
Matrix coefficients : BT.709-5, BT.1361, IEC 61966-2-4 709, SMPTE RP177

Audio #1
ID : 2
Format : AC-3
Format/Info : Audio Coding 3
Mode extension : CM (complete main)
Codec ID : A_AC3
Duration : 1h 30mn
Bit rate mode : Constant
Bit rate : 384 Kbps
Channel(s) : 6 channels
Channel positions : Front: L C R, Side: L R, LFE
Sampling rate : 48.0 KHz
Bit depth : 16 bits
Compression mode : Lossy
Stream size : 247 MiB (2%)
Title : DUB West-Video AC3: 5.1, 48 KHz, 16bit, 384 kbps (-28 db)
Language : Russian

Audio #2
ID : 3
Format : DTS
Format/Info : Digital Theater Systems
Format profile : HRA
Codec ID : A_DTS
Duration : 1h 30mn
Bit rate mode : Constant
Bit rate : 2 815 Kbps
Channel(s) : 6 channels
Channel positions : Front: L C R, Side: L R, LFE
Sampling rate : 48.0 KHz
Bit depth : 16 bits
Compression mode : Lossy
Stream size : 1.77 GiB (12%)
Title : DTS-HDHR: 5.1, 48 KHz, 16 bit, 2814 kbps
Language : English

Text #1
ID : 4
Format : UTF-8
Codec ID : S_TEXT/UTF8
Codec ID/Info : UTF-8 Plain Text
Language : Russian

Text #2
ID : 5
Format : UTF-8
Codec ID : S_TEXT/UTF8
Codec ID/Info : UTF-8 Plain Text
Language : Ukrainian

Text #3
ID : 6
Format : UTF-8
Codec ID : S_TEXT/UTF8
Codec ID/Info : UTF-8 Plain Text
Language : English

Информация о торренте:
Размер содержимого: 15.2 GB
Скачан: 174 раза
Статус: Проверен
Зарегистрирован на трекере: 2019-01-31 17:17
Скачать торрент


Поддержи раздачу — поставь лайк:
Писать комментарии на нашем торрент-трекере могут только зарегистрированные пользователи.
Зарегистрируйтесь или авторизируйтесь на сайте.