»
»

Скачать мультфильм Колобок (Владлен Барбэ) / [2006, мультфильм, короткометражка, DVDRip-AVC] - торрент

Нажмите на синюю кнопку ниже, чтобы скачать мультфильм бесплатно через торрент. Мультфильм доступен на нашем торрент-трекере бесплатно, без регистрации и смс.

Статистика раздачи
0 [ 0 b/s ] ↑ 392.3 MB ↓ 0 [ 0 b/s ]
Автор Сообщение
vamo
2019-01-25 10:58
Колобок
Колобок Перевод: Не требуется, cубтитры: отсутствуют
Формат: DVDRip-AVC, MKV, H.264, AC3
Страна: Россия
Режиссер: Владлен Барбэ
Жанр: мультфильм, короткометражка
Продолжительность: 00:19:29
Год выпуска: 2006
В ролях: Виктор Добронравов, Федор Добронравов, Эдуард Радзюкевич

Описание: Фильм о том, что ведь все должно было сложиться как-то по-другому, как-то повозвышеннее что ли, не просто так чтобы: иду себе - и иду, ведь и друзья были и враги были и сны дурацкие по ночам не мучили, жил себе и думал, что в твоей жизни есть большой смысл... а, ладно. Грустная история. (По мотивам русской народной сказки).



Видео: 768x576@1024x576 (16:9), 24,000 fps, AVC MPEG-4 (H.264), High@L4.1 ~2600 kbps, 0.245 bit/pixel
Аудио: 48 kHz, AC3 Dolby Digital, 2/0 (L,R) ch, ~192 kbps

MediaInfo
Общее
Уникальный идентификатор : 266544525863455149423427632815614753089 (0xC8869BBF45052887D44E75BC5D607941)
Полное имя : F:\Диск\04. МУЛЬТФИЛЬМЫ\Колобок (2006)\Колобок (2006).mkv
Формат : Matroska
Версия формата : Version 4
Размер файла : 392 Мбайт
Продолжительность : 19 м. 56 с.
Общий поток : 2751 Кбит/сек
Программа кодирования : Lavf
Библиотека кодирования : Lavf
Авторское право : [#ZsU®]
ErrorDetectionType : Per level 1

Видео
Идентификатор : 1
Формат : AVC
Формат/Информация : Advanced Video Codec
Профиль формата : High@L4.1
Настройки формата : CABAC / 10 Ref Frames
Параметр CABAC формата : Да
Параметр RefFrames формата : 10 кадров
Идентификатор кодека : V_MPEG4/ISO/AVC
Продолжительность : 19 м. 56 с.
Битрейт : 2600 Кбит/сек
Ширина : 768 пикселей
Высота : 576 пикселей
Соотношение сторон : 16:9
Режим частоты кадров : Постоянный
Частота кадров : 24,000 кадра/сек
Цветовое пространство : YUV
Субдискретизация насыщенности : 4:2:0
Битовая глубина : 8 бит
Тип развёртки : Прогрессивная
Бит/(Пиксели*Кадры) : 0.245
Размер потока : 357 Мбайт (91%)
Библиотека кодирования : x264 core 157 r2935 545de2f
Настройки программы : cabac=1 / ref=11 / deblock=1:-3:-3 / analyse=0x3:0x133 / me=umh / subme=11 / psy=1 / psy_rd=1.00:0.20 / mixed_ref=1 / me_range=32 / chroma_me=1 / trellis=2 / 8x8dct=1 / cqm=0 / deadzone=21,11 / fast_pskip=1 / chroma_qp_offset=-3 / threads=12 / lookahead_threads=1 / sliced_threads=0 / nr=0 / decimate=1 / interlaced=0 / bluray_compat=0 / constrained_intra=0 / bframes=11 / b_pyramid=1 / b_adapt=1 / b_bias=11 / direct=1 / weightb=1 / open_gop=0 / weightp=1 / keyint=240 / keyint_min=24 / scenecut=40 / intra_refresh=0 / rc_lookahead=40 / rc=abr / mbtree=1 / bitrate=2600 / ratetol=1.0 / qcomp=0.60 / qpmin=0 / qpmax=69 / qpstep=4 / ip_ratio=1.40 / aq=1:1.00
Default : Да
Forced : Нет
Цветовой диапазон : Limited
Основные цвета : BT.709
Характеристики трансфера : BT.709
Коэффициенты матрицы : BT.709

Аудио
Идентификатор : 2
Формат : AC-3
Формат/Информация : Audio Coding 3
Коммерческое название : Dolby Digital
Идентификатор кодека : A_AC3
Продолжительность : 19 м. 56 с.
Вид битрейта : Постоянный
Битрейт : 192 Кбит/сек
Каналы : 2 канала
Channel layout : L R
Частота : 48,0 КГц
Частота кадров : 31,250 кадров/сек (1536 SPF)
Битовая глубина : 16 бит
Метод сжатия : С потерями
Размер потока : 27,4 Мбайт (7%)
Default : Да
Forced : Нет

Информация о торренте:
Размер содержимого: 392.3 MB
Скачан: 145 раз
Статус: Проверен
Зарегистрирован на трекере: 2019-01-25 09:58
Скачать торрент


Поддержи раздачу — поставь лайк:
БАЙ
2019-01-26 18:21
Владлен Барбэ или как там тебя. Застрелись.
Писать комментарии на нашем торрент-трекере могут только зарегистрированные пользователи.
Зарегистрируйтесь или авторизируйтесь на сайте.