»
»

Скачать Гранд тур 3 сезон: 1-14 серия из 14 / The Grand Tour / [IdeaFilm] (Брайан Клейн, Фил Чурчуорд, Найджел Симпкисс) [2019, авто-шоу, документальный, ток-шоу, WEBRip 720p] MVO - торрент

Скачать через торрент вы можете, нажав на синюю кнопку.

Статистика раздачи
8 [ 1.1 MB/s ] ↑ 37.5 GB ↓ 0 [ 0 b/s ]
Автор Сообщение
IdeaFilm
2019-01-22 18:12
Гранд тур / The Grand Tour
Гранд тур 3 сезон: 1-14 серия из 14 / The Grand Tour / [IdeaFilm] Перевод: Профессиональный (многоголосый, закадровый), cубтитры: отсутствуют
Формат: WEBRip, MKV, H.264, AC
Страна: США, Великобритания
Режиссер: Брайан Клейн, Фил Чурчуорд, Найджел Симпкисс
Жанр: авто-шоу, документальный, ток-шоу
Продолжительность: 14х ~01:00:00
Год выпуска: 2019
В ролях: Джереми Кларксон, Ричард Хаммонд, Джеймс Мэй
Описание:
Гранд Тур — это новое автомобильное шоу во главе с неизменной тройкой легендарных ведущих — Джереми Кларксоном, Ричардом Хаммондом и Джеймсом Мэйем. Распрощавшись с Top Gear, они создали новое детище в области автомобильных развлекательных шоу.

Рейтинг на: [imdb=http://www.imdb.com/title/tt5712554/]

Видео: 1280x720 (16/9), 25,000 fps, AVC (х264), High@L3.1, ~4500 kbps avg, 0.195 bit/pixel
Аудио #1 Rus: :48 kHz, AC3 Dolby Digital, 3/2 (L,C,R,l,r) + LFE ch, ~384 kbps
Аудио #1 Eng: :48 kHz, AC3 Dolby Digital, 3/2 (L,C,R,l,r) + LFE ch, ~384 kbps

Внимание, присутствует реклама!

Внимание! Раздача ведётся путём добавления новых серий

Внимание! Раздача ведётся путём добавления новых серий; при каждом добавлении создаётся новый торрент. Чтобы начать докачку новой серии, пользователям необходимо сделать следующее:
(1) остановить скачивание,
(2) удалить старый торрент у себя из клиента (старые серии удалять не надо),
(3) скачать новый торрент и запустить его у себя в клиенте вместо старого, при этом указать клиенту путь в старую папку куда и должно происходить скачивание новых серий.

Ваш клиент при этом должен произвести хеширование (проверку) старой папки (если не производит сам - помогите ему сделать это), и будет докачивать только те серии которых у вас ещё нет. Старые серии при этом не удаляются, а продолжают раздаваться!

Eсли вы уже удалили старые серии, то предотвратить повторную закачку старых серий можно, отжав галочку в соответствующих местах при запуске нового торрента. По возможности, желательно не удалять старые серии как можно дольше, чтобы релизёр не столько продолжал раздавать старые серии, а смог сконцентрироваться на новых.
MediaInfo

Общее
Уникальный идентификатор : 53278889633077697669295071180252503152 (0x28152411AE925DA8AEDF989BB95BDC70)
Полное имя : D:\IDEAFILM\The.Grand.Tour.S03.WEBRip.720p\The.Grand.Tour.S03E01.WEBRip.720p-IdeaFilm.mkv
Формат : Matroska
Версия формата : Version 4
Размер файла : 2,55 Гбайт
Продолжительность : 1 ч. 9 м.
Общий поток : 5269 Кбит/сек
Дата кодирования : UTC 2019-01-22 13:21:52
Программа кодирования : mkvmerge v25.0.0 ('Prog Noir') 64-bit
Библиотека кодирования : libebml v1.3.6 + libmatroska v1.4.9

Видео
Идентификатор : 1
Формат : AVC
Формат/Информация : Advanced Video Codec
Профиль формата : High@L3.1
Настройки формата : CABAC / 4 Ref Frames
Параметр CABAC формата : Да
Параметр RefFrames формата : 4 кадра
Идентификатор кодека : V_MPEG4/ISO/AVC
Продолжительность : 1 ч. 9 м.
Битрейт : 4500 Кбит/сек
Ширина : 1280 пикселей
Высота : 720 пикселей
Соотношение сторон : 16:9
Режим частоты кадров : Постоянный
Частота кадров : 25,000 кадров/сек
Цветовое пространство : YUV
Субдискретизация насыщенности : 4:2:0
Битовая глубина : 8 бит
Тип развёртки : Прогрессивная
Бит/(Пиксели*Кадры) : 0.195
Размер потока : 2,18 Гбайт (85%)
Библиотека кодирования : x264 core 130 r2273 b3065e6
Настройки программы : cabac=1 / ref=3 / deblock=1:0:0 / analyse=0x3:0x113 / me=hex / subme=2 / psy=1 / psy_rd=1.00:0.00 / mixed_ref=1 / me_range=16 / chroma_me=1 / trellis=1 / 8x8dct=1 / cqm=0 / deadzone=21,11 / fast_pskip=1 / chroma_qp_offset=0 / threads=24 / lookahead_threads=5 / sliced_threads=0 / nr=0 / decimate=1 / interlaced=0 / bluray_compat=0 / constrained_intra=0 / bframes=2 / b_pyramid=2 / b_adapt=1 / b_bias=0 / direct=1 / weightb=1 / open_gop=0 / weightp=2 / keyint=250 / keyint_min=25 / scenecut=40 / intra_refresh=0 / rc_lookahead=40 / rc=abr / mbtree=1 / bitrate=4500 / ratetol=1.0 / qcomp=0.60 / qpmin=0 / qpmax=69 / qpstep=4 / ip_ratio=1.40 / aq=1:1.00
Default : Да
Forced : Нет

Аудио #1
Идентификатор : 2
Формат : AC-3
Формат/Информация : Audio Coding 3
Коммерческое название : Dolby Digital
Идентификатор кодека : A_AC3
Продолжительность : 1 ч. 9 м.
Вид битрейта : Постоянный
Битрейт : 384 Кбит/сек
Каналы : 6 каналов
Channel layout : L R C LFE Ls Rs
Частота : 48,0 КГц
Частота кадров : 31,250 кадров/сек (1536 SPF)
Битовая глубина : 16 бит
Метод сжатия : С потерями
Размер потока : 190 Мбайт (7%)
Заголовок : IdeaFilm
Язык : Russian
ServiceKind/String : Complete Main
Default : Да
Forced : Нет

Аудио #2
Идентификатор : 3
Формат : AC-3
Формат/Информация : Audio Coding 3
Коммерческое название : Dolby Digital
Идентификатор кодека : A_AC3
Продолжительность : 1 ч. 8 м.
Вид битрейта : Постоянный
Битрейт : 384 Кбит/сек
Каналы : 6 каналов
Channel layout : L R C LFE Ls Rs
Частота : 48,0 КГц
Частота кадров : 31,250 кадров/сек (1536 SPF)
Битовая глубина : 16 бит
Метод сжатия : С потерями
Задержка видео : 25 с. 0 мс.
Размер потока : 189 Мбайт (7%)
Язык : English
ServiceKind/String : Complete Main
Default : Нет
Forced : Нет

Информация о торренте:
Размер содержимого: 37.5 GB
Скачан: 1156 раз
Статус: Проверен
Зарегистрирован на трекере: 2019-04-20 12:47
Скачать торрент


Поддержи раздачу — поставь лайк:
Писать комментарии на нашем торрент-трекере могут только зарегистрированные пользователи.
Зарегистрируйтесь или авторизируйтесь на сайте.