»
»

Скачать фильм 2012: Гибель Империи / Nihon chinbotsu (Шиньджи Хигучи ) [2006, фантастика, триллер, драма, HDTVRip-AVC] MVO - торрент

Скачать бесплатный торрент фильм. Фильм доступен на нашем торрент-трекере бесплатно, без регистрации и смс.

Статистика раздачи
3 [ 0 b/s ] ↑ 2.2 GB ↓ 0 [ 0 b/s ]
Автор Сообщение
monstryu
2019-01-14 15:19
2012: Гибель Империи / Nihon chinbotsu
2012: Гибель Империи / Nihon chinbotsu
Перевод: Профессиональный (многоголосый закадровый), субтитры: отсутствуют
Формат: HDTVRip-AVC, MKV, H.264, AC3
Страна: Япония
Режиссер: Шиньджи Хигучи
Жанр: фантастика, триллер, драма
Продолжительность: 02:14:34
Год выпуска: 2006
В ролях: Тсуeши Кусанаги, Ко Шибасаки, Эцуши Тойокава, Мао Даичи, Митсухиро Оикава, Маюко Фукуда, Хидеко Йошида, Акира Эмото, Дзюн Кунимура, Кодзи Исидзака

Описание: Учёные вычислили, что Япония уйдёт под воду в течение сорока лет из-за того, что тектоническая плита, находящаяся под Японским архипелагом постепенно перемещается на запад. Однако доктор Тадокоро, который возглавляет группу по исследованию океана, вычисляет, что это произойдёт через 338,58 дней.
Он показывает результаты своих исследований Премьер-министру и другим. Правительство ему не верит. В то время как на территории Японии начинаются разрушительные землетрясения и извержения вулканов, в точности, как и предсказывал Тадокоро.


[imdb=https://www.imdb.com/title/tt0473064/?ref_=fn_al_tt_1]

Видео: 1024x416 (2.462), 23.976 fps, AVC MPEG4 (x264), High@L4.1, ~1945 kbps avg, 0.190 bit/pixel
Аудио: 48 kHz, AC3 Dolby Digital, 3/2 (L,C,R,l,r) + LFE ch, ~384 kbps
MI
General
Unique ID : 277825716958258793801428867655910930247 (0xD10349692C8499081B6FED072DBDB747)
Complete name : C:\Users\123\Desktop\2012 Гибель Империи (Nihon chinbotsu) 2006 HDTVRip.(AVC)_[tfile.ru].mkv
Format : Matroska
Format version : Version 4 / Version 2
File size : 2.19 GiB
Duration : 2h 14mn
Overall bit rate mode : Constant
Overall bit rate : 2 329 Kbps
Encoded date : UTC 2019-01-05 15:43:45
Writing application : Lavf56.36.100
Writing library : Lavf56.36.100

Video
ID : 2
Format : AVC
Format/Info : Advanced Video Codec
Format profile : High@L4.1
Format settings, CABAC : Yes
Format settings, ReFrames : 2 frames
Format settings, GOP : M=1, N=25
Codec ID : V_MPEG4/ISO/AVC
Duration : 2h 14mn
Bit rate mode : Constant
Bit rate : 1 945 Kbps
Width : 1 024 pixels
Height : 416 pixels
Display aspect ratio : 2.462
Frame rate mode : Constant
Frame rate : 23.976 fps
Color space : YUV
Chroma subsampling : 4:2:0
Bit depth : 8 bits
Scan type : Progressive
Bits/(Pixel*Frame) : 0.190
Stream size : 1.78 GiB (82%)
Language : Japanese
Default : Yes
Forced : No

Audio
ID : 1
Format : AC-3
Format/Info : Audio Coding 3
Mode extension : CM (complete main)
Format settings, Endianness : Big
Codec ID : A_AC3
Duration : 2h 14mn
Bit rate mode : Constant
Bit rate : 384 Kbps
Channel(s) : 6 channels
Channel positions : Front: L C R, Side: L R, LFE
Sampling rate : 48.0 KHz
Bit depth : 32 bits
Compression mode : Lossy
Stream size : 369 MiB (16%)
Title : MVO R5 «Флагман-Трейд»
Language : Russian
Default : Yes
Forced : No

Информация о торренте:
Размер содержимого: 2.2 GB
Скачан: 241 раз
Статус: Проверен
Зарегистрирован на трекере: 2019-01-14 14:19
Скачать торрент


Поддержи раздачу — поставь лайк:
Писать комментарии на нашем торрент-трекере могут только зарегистрированные пользователи.
Зарегистрируйтесь или авторизируйтесь на сайте.