»
»

Скачать фильм Граффити (Игорь Апасян) / [2006, драма, мелодрама, трагикомедия, DVDRip-AVC] - торрент

Торрент можно скачать, нажав синюю кнопку ниже. Фильм доступен на нашем торрент-трекере бесплатно, без регистрации и смс.

Статистика раздачи
103 [ 0 b/s ] ↑ 2.0 GB ↓ 0 [ 0 b/s ]
Автор Сообщение
BLIZNEC W
2019-01-13 21:26
Граффити
Граффити Формат: DVDRip-AVC, MKV, H.264, AC3
Режиссер: Игорь Апасян
Жанр: драма, мелодрама, трагикомедия
Продолжительность: 02:00:58
Год выпуска: 2006

В ролях: Андрей Новиков, Виктор Перевалов, Лариса Гузеева, Сергей Потапов, Александр Ильин, Анатолий Солодилин, Игорь Николаев, Игорь Регнер, Александр Казаченко, Галина Гусева, Валентина Малявина (II), Владимир Вышилов, Олег Шеремет-Доска, Ольга Демидова, Аметхан Магомедов, Максим Громов, Александр Мокринский, Владимир Мельников, Алексей Щукин, Евгений Ерофеев-Лошаков, Анна Зайцева (II)

Описание: Художник-дипломник ловит кайф, расписывая в стиле граффити стенки столичной подземки. Но у улицы свои законы, надо знать территорию. В разборке с местными байкерами Андрей получает подбитый глаз, подвернутую ногу, жалобу на имя ректора и лишается поездки в Италию с выпускным курсом и любимой девушкой. Вместо Венеции Андрея отправляют писать родные просторы в провинцию. Но и здесь он не может обойтись без приключений, только они уже совсем другие...
«Смертью друг друга живем, жизнью друг друга умираем...»
Рейтинг и доп. информация:


Видео: 720x412@768x412, (1,85:1), 25 fps, AVC MPEG-4 (x264), High@L4.1 ~ 1851 kbps , 0.250 bit/pixel
Аудио: 48 kHz, AC3 Dolby Digital, 3/2 (L,C,R,l,r) + LFE ch, ~448 kbps
MediaInfo
x264 [info]: frame I:1273 Avg QP:17.29 size: 55816
x264 [info]: frame P:45200 Avg QP:18.63 size: 22303
x264 [info]: frame B:134988 Avg QP:21.36 size: 4749

======================================

Общее
Уникальный идентификатор : 242605846670071239591258677355780986042 (0xB6842FBD0E976FF5B38B3B59DCFF54BA)
Полное имя : Граффити.2006.DVDRip-AVC.KORSAR.mkv
Формат : Matroska
Версия формата : Version 2
Размер файла : 1,98 Гбайт
Продолжительность : 2 ч. 0 м.
Общий поток : 2346 Кбит/сек
Дата кодирования : UTC 2017-09-02 04:17:26
Программа кодирования : mkvmerge v5.8.0 ('No Sleep / Pillow') built on Sep 2 2012 15:37:04
Библиотека кодирования : libebml v1.2.3 + libmatroska v1.3.0

Видео
Идентификатор : 1
Формат : AVC
Формат/Информация : Advanced Video Codec
Профиль формата : High@L4.1
Параметр CABAC формата : Да
Параметр RefFrames формата : 16 кадров
Идентификатор кодека : V_MPEG4/ISO/AVC
Продолжительность : 2 ч. 0 м.
Битрейт : 1851 Кбит/сек
Ширина : 720 пикселей
Высота : 412 пикселей
Соотношение сторон : 1,85:1
Режим частоты кадров : Постоянный
Частота кадров : 25,000 кадров/сек
Цветовое пространство : YUV
Субдискретизация насыщенности : 4:2:0
Битовая глубина : 8 бит
Тип развёртки : Прогрессивная
Бит/(Пиксели*Кадры) : 0.250
Размер потока : 1,56 Гбайт (79%)
Заголовок : Граффити.2006.DVDRip-AVC.KORSAR
Библиотека кодирования : x264 core 148 r2744kMod b97ae06
Настройки программы : cabac=1 / ref=16 / deblock=1:-2:-2 / analyse=0x3:0x133 / me=umh / subme=10 / psy=1 / fade_compensate=0.00 / psy_rd=1.05:0.10 / mixed_ref=1 / me_range=32 / chroma_me=1 / trellis=2 / 8x8dct=1 / cqm=0 / deadzone=21,11 / fast_pskip=1 / chroma_qp_offset=-3 / threads=12 / lookahead_threads=3 / sliced_threads=0 / nr=0 / decimate=1 / interlaced=0 / bluray_compat=0 / constrained_intra=0 / bframes=16 / b_pyramid=2 / b_adapt=2 / b_bias=0 / direct=1 / weightb=1 / open_gop=0 / weightp=2 / keyint=250 / keyint_min=25 / scenecut=40 / intra_refresh=0 / rc=crf / mbtree=0 / crf=17.3000 / qcomp=0.63 / qpmin=0 / qpmax=39 / qpstep=4 / ip_ratio=1.40 / pb_ratio=1.30 / aq=1:1.00
Язык : English
Default : Да
Forced : Нет
Цветовой диапазон : Limited
Основные цвета : BT.601 PAL
Характеристики трансфера : BT.470 System B, BT.470 System G
Коэффициенты матрицы : BT.601

Аудио
Идентификатор : 2
Формат : AC-3
Формат/Информация : Audio Coding 3
Параметр Endianness формата : Big
Идентификатор кодека : A_AC3
Продолжительность : 2 ч. 0 м.
Вид битрейта : Постоянный
Битрейт : 448 Кбит/сек
Каналы : 6 каналов
Расположение каналов : Front: L C R, Side: L R, LFE
Частота : 48,0 КГц
Частота кадров : 31,250 кадров/сек (1536 SPF)
Битовая глубина : 16 бит
Метод сжатия : С потерями
Размер потока : 388 Мбайт (19%)
Язык : Russian
Default : Да
Forced : Нет

Информация о торренте:
Размер содержимого: 2.0 GB
Скачан: 424 раза
Статус: Проверен
Зарегистрирован на трекере: 2019-01-13 20:26
Скачать торрент


Поддержи раздачу — поставь лайк:
BLIZNEC W
2019-01-13 20:26
Интересного и приятного просмотра!!!

Мои раздачи
Писать комментарии на нашем торрент-трекере могут только зарегистрированные пользователи.
Зарегистрируйтесь или авторизируйтесь на сайте.