»
»

Скачать фильм Кабельщик / The Cable Guy (Бен Стиллер) [1996, триллер, драма, комедия, BDRip-AVC] MVO - торрент

Нажмите на синюю кнопку, чтобы скачать фильм через торрент бесплатно. Фильм доступен на нашем торрент-трекере бесплатно, без регистрации и смс.

Статистика раздачи
10 [ 668.0 KB/s ] ↑ 2.2 GB ↓ 2 [ 1.5 MB/s ]
Автор Сообщение
ярусс
2019-01-13 18:43
Кабельщик / The Cable Guy
Кабельщик / The Cable Guy
Перевод: Профессиональный (многоголосый закадровый), субтитры: отсутствуют
Формат: BDRip-AVC, MKV, H.264, AC3
Страна: США
Режиссер: Бен Стиллер
Жанр: триллер, драма, комедия
Продолжительность: 01:35:45
Год выпуска: 1996
В ролях: Джим Керри, Мэттью Бродерик, Лесли Манн, Джек Блэк, Джордж Сигал, Дайан Бэйкер, Бен Стиллер, Эрик Робертс, Джанин Гарофало, Энди Дик
Описание:
Чип Дуглас (Джим Керри) всё своё детство провёл перед экраном телевизора. Его любимая передача «Теленяня», учила, что друг должен быть у каждого. Чип твёрдо усвоил это урок. Став взрослым, он не меняет своих наклонностей (в области телевидения он профи) и становится телемастером, попросту говоря, кабельщиком. Однажды он налаживает работу телевизора некому Стивену Ковачу. Чип, оказав Стивену несколько бесплатных услуг и получив взамен тёплые слова благодарности, убеждается во мнении, что наконец-то нашел своего настоящего друга. Однако Стивен думает иначе. Чтобы заполучить вожделённую «дружбу», разъярённый кабельщик переходит к далеко небезобидным мерам.

[imdb=http://www.imdb.com/title/tt0115798/]


Видео: 1280x532 (2.40:1) 23.976 fps, MPEG4 AVC (x264) High@L4.1, 2885 kbps avg, 0.177 bit/pixel
Аудио: 48 kHz, AC3 Dolby Digital, 3/2 (L,C,R,l,r) + LFE ch, ~384.00 kbps avg

МИ
Complete name : D:\Кабельщик.1996.BDRip-AVC.2,18gb.mkv
Format : Matroska
File size : 2.19 GiB
Duration : 1h 35mn
Overall bit rate : 3 273 Kbps
Encoded date : UTC 2018-03-24
Writing application : Lavf55.11.101
Writing library : Lavf55.11.101

Video
ID : 1
Format : AVC
Format/Info : Advanced Video Codec
Format profile : High@L4.1
Format settings, CABAC : Yes
Format settings, ReFrames : 11 frames
Codec ID : V_MPEG4/ISO/AVC
Duration : 1h 35mn
Bit rate : 2 885 Kbps
Width : 1 280 pixels
Height : 532 pixels
Display aspect ratio : 2.40:1
Frame rate : 23.976 fps
Color space : YUV
Chroma subsampling : 4:2:0
Bit depth : 8 bits
Scan type : Progressive
Bits/(Pixel*Frame) : 0.177
Stream size : 1.89 GiB (86%)
Writing library : x264 core 114 r1913 5fd3dce
Encoding settings : cabac=1 / ref=11 / deblock=1:-3:-2 / analyse=0x3:0x113 / me=umh / subme=9 / psy=1 / psy_rd=1.00:0.00 / mixed_ref=1 / me_range=24 / chroma_me=1 / trellis=2 / 8x8dct=1 / cqm=0 / deadzone=21,11 / fast_pskip=0 / chroma_qp_offset=-2 / threads=6 / sliced_threads=0 / nr=0 / decimate=1 / interlaced=0 / constrained_intra=0 / bframes=10 / b_pyramid=2 / b_adapt=2 / b_bias=0 / direct=3 / weightb=1 / open_gop=0 / weightp=2 / keyint=240 / keyint_min=23 / scenecut=40 / intra_refresh=0 / rc_lookahead=40 / rc=2pass / mbtree=0 / bitrate=2885 / ratetol=1.0 / qcomp=0.60 / qpmin=0 / qpmax=51 / qpstep=4 / cplxblur=20.0 / qblur=0.5 / vbv_maxrate=50000 / vbv_bufsize=62500 / nal_hrd=none / ip_ratio=1.40 / pb_ratio=1.30 / aq=1:0.80 / zones=132062,137759,b=0.35
Matrix coefficients : BT.709-5, BT.1361, IEC 61966-2-4 709, SMPTE RP177

Audio
ID : 2
Format : AC-3
Format/Info : Audio Coding 3
Mode extension : CM (complete main)
Codec ID : A_AC3
Duration : 1h 35mn
Bit rate mode : Constant
Bit rate : 384 Kbps
Channel(s) : 6 channels
Channel positions : Front: L C R, Side: L R, LFE
Sampling rate : 48.0 KHz
Bit depth : 16 bits
Stream size : 263 MiB (12%)
Title : DUB
Language : Russian

Menu
00:00:00.000 : :00:00:00.000
00:04:08.206 : :00:04:08.206
00:11:00.118 : :00:11:00.118
00:17:48.484 : :00:17:48.484
00:23:36.081 : :00:23:36.081
00:29:40.821 : :00:29:40.821
00:37:31.791 : :00:37:31.791
00:44:38.551 : :00:44:38.551
00:50:20.142 : :00:50:20.142
00:55:16.355 : :00:55:16.355
01:02:09.392 : :01:02:09.392
01:08:01.452 : :01:08:01.452
01:15:11.841 : :01:15:11.841
01:20:14.101 : :01:20:14.101
01:23:23.040 : :01:23:23.040
01:29:43.837 : :01:29:43.837


Информация о торренте:
Размер содержимого: 2.2 GB
Скачан: 295 раз
Статус: Проверен
Зарегистрирован на трекере: 2019-01-13 17:43
Скачать торрент


Поддержи раздачу — поставь лайк:
Писать комментарии на нашем торрент-трекере могут только зарегистрированные пользователи.
Зарегистрируйтесь или авторизируйтесь на сайте.