»
»

Скачать фильм Верни мою жизнь (1-4 серии из 4) (Мирослав Малич) / [2018, мелодрама, WEBRip-AVC] - торрент

Скачать торрент фильм можно, нажав на синюю кнопку ниже. Фильм доступен на нашем торрент-трекере бесплатно, без регистрации и смс.

Статистика раздачи
156 [ 65.0 KB/s ] ↑ 2.5 GB ↓ 1 [ 0 b/s ]
Автор Сообщение
BLIZNEC W
2019-01-13 16:33
Верни мою жизнь (1-4 серии из 4)
Верни мою жизнь Страна: Украина
Перевод: не требуется
Формат: WEBRip-AVC, MKV, H.264, AC3
Режиссер: Мирослав Малич
Жанр: мелодрама
Продолжительность: 4 х 00:50:00
Год выпуска: 2018

В ролях: Олеся Грибок, Александр Константинов, Любава Грешнова, Анатолий Руденко, Виталий Кудрявцев, Ирина Мельник, Виктор Жданов (III), Тамара Морозова, Виктор Сарайкин, Елена Хохлаткина, Анна Яремчук-Бобало, Григорий Боковенко, Екатерина Гулякова, Владимир Гладкий, Анна Абрамёнок, Любовь Тищенко (II), Алексей Нагрудный, Борис Георгиевский

Описание: Две девушки, Рита, дочь рабочих, и Полина, дочь директора завода, борются за внимание одного парня – Юрия. Роковая драка, в которой гибнет отец Риты Лебедев, и получает увечья отец Полины Арсеньев – разделяет жизнь всех героев истории на ДО и ПОСЛЕ. Рита, из-за предательства Юрия и подлости Полины, попадает в тюрьму. Мысль о мести своим обидчикам, а также ожидание ребенка, помогают Рите выжить… Оправдывая прозвище Незабудка, Рита будет помнить и о людях, сломавших ей жизнь, и о дорогих её сердцу близких – сыне, матери, о рожденной в колонии и отобранной дочке… На долгие годы сплетется узел из сломанных судеб, разбитых сердец и напрасных надежд… Сможет ли Рита простить Юрия и Полину и отказаться от мести? Сможет ли найти и вернуть своих потерянных детей? Сможет ли не утратить веру в любовь и начать жизнь заново?

Рейтинг и доп. информация:


Видео: 1024x576, (16:9), 25 fps, AVC MPEG-4 (x264), High@L4.1 ~ 1600 kbps , 0.109 bit/pixel
Аудио: 44 kHz, АС3, 2/0 (L,R), ~192.00 kbps avg
MediaInfo
Общее
Уникальный идентификатор : 216311029753907609493477340076835497594 (0xA2BBFD2BDAF57DDC851219345E0A667A)
Полное имя : C:\Верни мою жизнь.(2018).WEBRip.(AVC).Files-x\01.Верни мою жизнь.(2018).WEBRip.(AVC).by.Серый1779.Files-x.mkv
Формат : Matroska
Версия формата : Version 2
Размер файла : 633 Мбайт
Продолжительность : 49 м. 23 с.
Общий поток : 1793 Кбит/сек
Дата кодирования : UTC 2019-01-13 00:48:12
Программа кодирования : mkvmerge v7.8.0 ('River Man') 32bit built on Apr 3 2015 12:11:22
Библиотека кодирования : libebml v1.3.1 + libmatroska v1.4.2

Видео
Идентификатор : 1
Формат : AVC
Формат/Информация : Advanced Video Codec
Профиль формата : High@L4.1
Настройки формата : CABAC / 9 Ref Frames
Параметр CABAC формата : Да
Параметр RefFrames формата : 9 кадров
Идентификатор кодека : V_MPEG4/ISO/AVC
Продолжительность : 49 м. 23 с.
Битрейт : 1600 Кбит/сек
Ширина : 1024 пикселя
Высота : 576 пикселей
Соотношение сторон : 16:9
Режим частоты кадров : Постоянный
Частота кадров : 25,000 кадров/сек
Цветовое пространство : YUV
Субдискретизация насыщенности : 4:2:0
Битовая глубина : 8 бит
Тип развёртки : Прогрессивная
Бит/(Пиксели*Кадры) : 0.109
Размер потока : 553 Мбайт (87%)
Библиотека кодирования : x264 core 146 r2538 121396c
Настройки программы : cabac=1 / ref=9 / deblock=1:-2:-1 / analyse=0x3:0x133 / me=umh / subme=9 / psy=1 / psy_rd=1.00:0.15 / mixed_ref=1 / me_range=32 / chroma_me=1 / trellis=2 / 8x8dct=1 / cqm=0 / deadzone=21,11 / fast_pskip=0 / chroma_qp_offset=-3 / threads=18 / lookahead_threads=3 / sliced_threads=0 / nr=0 / decimate=1 / interlaced=0 / bluray_compat=0 / constrained_intra=0 / bframes=9 / b_pyramid=2 / b_adapt=2 / b_bias=0 / direct=1 / weightb=1 / open_gop=0 / weightp=2 / keyint=250 / keyint_min=25 / scenecut=40 / intra_refresh=0 / rc=2pass / mbtree=0 / bitrate=1600 / ratetol=1.0 / qcomp=0.60 / qpmin=0 / qpmax=69 / qpstep=4 / cplxblur=20.0 / qblur=0.5 / ip_ratio=1.40 / pb_ratio=1.30 / aq=2:1.00
Default : Да
Forced : Нет
Цветовой диапазон : Limited
Основные цвета : BT.709
Характеристики трансфера : BT.709
Коэффициенты матрицы : BT.709

Аудио
Идентификатор : 2
Формат : AC-3
Формат/Информация : Audio Coding 3
Коммерческое название : Dolby Digital
Идентификатор кодека : A_AC3
Продолжительность : 49 м. 23 с.
Вид битрейта : Постоянный
Битрейт : 192 Кбит/сек
Каналы : 2 канала
Channel layout : L R
Частота : 44,1 КГц
Частота кадров : 28,711 кадров/сек (1536 SPF)
Битовая глубина : 16 бит
Метод сжатия : С потерями
Размер потока : 67,8 Мбайт (11%)
ServiceKind/String : Complete Main
Default : Да
Forced : Нет

Информация о торренте:
Размер содержимого: 2.5 GB
Скачан: 774 раза
Статус: Проверен
Зарегистрирован на трекере: 2019-01-13 15:33
Скачать торрент


Поддержи раздачу — поставь лайк:
BLIZNEC W
2019-01-13 15:33
Интересного и приятного просмотра!!!

Мои раздачи
Писать комментарии на нашем торрент-трекере могут только зарегистрированные пользователи.
Зарегистрируйтесь или авторизируйтесь на сайте.