»
»

Скачать фильм Новогодний экспресс / Любовь дальнего следования (1-2 серии из 2) (Дмитрий Булин) [2018, мелодрама, HDTVRip 720p] - торрент

Скачать фильм бесплатно через торрент. Фильм доступен на нашем торрент-трекере бесплатно, без регистрации и смс.

Статистика раздачи
170 [ 0 b/s ] ↑ 5.1 GB ↓ 0 [ 0 b/s ]
Автор Сообщение
BLIZNEC W
2019-01-13 14:10
Новогодний экспресс / Любовь дальнего следования (1-2 серии из 2)
Новогодний экспресс / Любовь дальнего следования Формат: HDTVRip 720p, MKV, H.264, AC3
Режиссер: Дмитрий Булин
Жанр: мелодрама
Продолжительность: 2 x ~ 01:26:00
Год выпуска: 2018

В ролях: Ольга Лерман, Евгений Романцов, Иван Чуйков, Дарья Румянцева, Александр Макогон, Ольга Кузьмина, Микаэл Арамян, Александр Арсентьев, Мария Померанцева, Надежда Азоркина, Екатерина Гудина, Инга Фишлер, Виталия Корниенко

Описание: Кто едет в поезде в новогоднюю ночь? Только неисправимые романтики – или конченые неудачники! Но судьба не просто так собрала 31 декабря в одном составе разных людей с разными историями – на каждого из пассажиров у наступающего года свои планы!

Рейтинг и доп. информация:


Видео: 1280x720, (16:9), 25 fps, AVC MPEG-4 (x264), High@L4.1 ~ 4000 kbps , 0.174 bit/pixel
Аудио: 48 kHz, АС3, 2/0 (L,R), ~192.00 kbps avg
MediaInfo
Общее
Уникальный идентификатор : 195237956951200279912193734153381668342 (0x92E1767743AF7EBBB567EEFA35CCE5F6)
Полное имя : C:\Novogodnij.ekspress.2018.HDTVRip.(720p).Nikolspup\Novogodnij.ekspress.(01.seriya.iz.02).2018.HDTVRip.(720p).Nikolspup.mkv
Формат : Matroska
Версия формата : Version 4
Размер файла : 2,52 Гбайт
Продолжительность : 1 ч. 26 м.
Общий поток : 4193 Кбит/сек
Дата кодирования : UTC 2019-01-12 20:30:30
Программа кодирования : mkvmerge v7.8.0 ('River Man') 32bit built on Mar 27 2015 16:18:02
Библиотека кодирования : libebml v1.3.1 + libmatroska v1.4.2

Видео
Идентификатор : 1
Формат : AVC
Формат/Информация : Advanced Video Codec
Профиль формата : High@L4.1
Настройки формата : CABAC / 9 Ref Frames
Параметр CABAC формата : Да
Параметр RefFrames формата : 9 кадров
Идентификатор кодека : V_MPEG4/ISO/AVC
Продолжительность : 1 ч. 26 м.
Битрейт : 4000 Кбит/сек
Ширина : 1280 пикселей
Высота : 720 пикселей
Соотношение сторон : 16:9
Режим частоты кадров : Постоянный
Частота кадров : 25,000 кадров/сек
Цветовое пространство : YUV
Субдискретизация насыщенности : 4:2:0
Битовая глубина : 8 бит
Тип развёртки : Прогрессивная
Бит/(Пиксели*Кадры) : 0.174
Размер потока : 2,36 Гбайт (93%)
Библиотека кодирования : x264 core 146 r2538 121396c
Настройки программы : cabac=1 / ref=9 / deblock=1:-2:-1 / analyse=0x3:0x133 / me=umh / subme=9 / psy=1 / psy_rd=1.00:0.20 / mixed_ref=1 / me_range=32 / chroma_me=1 / trellis=2 / 8x8dct=1 / cqm=0 / deadzone=21,11 / fast_pskip=1 / chroma_qp_offset=-3 / threads=12 / lookahead_threads=8 / sliced_threads=0 / nr=0 / decimate=1 / interlaced=0 / bluray_compat=0 / constrained_intra=0 / bframes=11 / b_pyramid=2 / b_adapt=2 / b_bias=0 / direct=1 / weightb=1 / open_gop=0 / weightp=2 / keyint=250 / keyint_min=25 / scenecut=40 / intra_refresh=0 / rc=2pass / mbtree=0 / bitrate=4000 / ratetol=1.0 / qcomp=0.60 / qpmin=0 / qpmax=69 / qpstep=4 / cplxblur=20.0 / qblur=0.5 / ip_ratio=1.40 / pb_ratio=1.30 / aq=3:1.00
Default : Нет
Forced : Нет
Цветовой диапазон : Limited
Основные цвета : BT.709
Характеристики трансфера : BT.709
Коэффициенты матрицы : BT.709

Аудио
Идентификатор : 2
Формат : AC-3
Формат/Информация : Audio Coding 3
Коммерческое название : Dolby Digital
Идентификатор кодека : A_AC3
Продолжительность : 1 ч. 26 м.
Вид битрейта : Постоянный
Битрейт : 192 Кбит/сек
Каналы : 2 канала
Channel layout : L R
Частота : 48,0 КГц
Частота кадров : 31,250 кадров/сек (1536 SPF)
Битовая глубина : 16 бит
Метод сжатия : С потерями
Размер потока : 118 Мбайт (5%)
Язык : Russian
ServiceKind/String : Complete Main
Default : Да
Forced : Да

Информация о торренте:
Размер содержимого: 5.1 GB
Скачан: 239 раз
Статус: Проверен
Зарегистрирован на трекере: 2019-01-13 13:10
Скачать торрент


Поддержи раздачу — поставь лайк:
BLIZNEC W
2019-01-13 13:11
Интересного и приятного просмотра!!!

Мои раздачи
Писать комментарии на нашем торрент-трекере могут только зарегистрированные пользователи.
Зарегистрируйтесь или авторизируйтесь на сайте.