»
»

Скачать прикол Уральские пельмени. Лень космонавтики (Эфир от 11.01.2019) (СТС) / [2017, ТВ-шоу, юмор, WEB-DL 720p] - торрент

Нажмите на синюю кнопку, чтобы скачать прикол через торрент бесплатно. Прикол доступен на нашем торрент-трекере бесплатно, без регистрации и смс.

Статистика раздачи
223 [ 0 b/s ] ↑ 1.0 GB ↓ 0 [ 0 b/s ]
Автор Сообщение
kupper2201
2019-01-12 15:09
Уральские пельмени. Лень космонавтики (Эфир от 11.01.2019)
Уральские пельмени. Лень космонавтики Перевод: Не требуется, cубтитры: отсутствуют
Формат: WEB-DL 720p, MKV, H.264, AC3
Страна: Россия
Режиссер: СТС
Жанр: ТВ-шоу, юмор
Продолжительность: 01:10:10
Год выпуска: 2017

Описание: Когда начинаешь есть шашлык из тюбика. Когда не отпускают погулять без скафандра. Когда роуминг становится межпланетным. Когда зависаешь с друзьями в прямом смысле этого слова. Тогда наступает «Лень космонавтики» в новой программе от Шоу «Уральские Пельмени

Видео: 1280x720 (16:9), 25 fps, AVC (x264) Main@L3.1 , ~1752 kbps avg, 0.130 bit/pixel
Аудио: 44 kHz, AC3, 2 ch, ~256.00 kbps avg
Доп. информация:

Mediainfo
Общее
Уникальный идентификатор : 184699862674090745173315758982341224350 (0x8AF3E64DCFFE79888AD4A7D3014A679E)
Полное имя : C:\Uralskie.Pelmeni.len.Kosmonavtiki.(11.01.2019).WEB-DL.(720р).Kinozal-Reliz.by.Olyanchik.mkv
Формат : Matroska
Версия формата : Version 4 / Version 2
Размер файла : 1,00 Гбайт
Продолжительность : 1 ч. 11 м.
Общий поток : 2010 Кбит/сек
Дата кодирования : UTC 2019-01-11 19:30:24
Программа кодирования : mkvmerge v9.6.0 ('Slave To Your Mind') 64bit
Библиотека кодирования : libebml v1.3.4 + libmatroska v1.4.5

Видео
Идентификатор : 1
Формат : AVC
Формат/Информация : Advanced Video Codec
Профиль формата : Main@L3.1
Настройки формата : CABAC / 3 Ref Frames
Параметр CABAC формата : Да
Параметр RefFrames формата : 3 кадра
Идентификатор кодека : V_MPEG4/ISO/AVC
Продолжительность : 1 ч. 11 м.
Битрейт : 1752 Кбит/сек
Ширина : 1280 пикселей
Высота : 720 пикселей
Соотношение сторон : 16:9
Режим частоты кадров : Постоянный
Частота кадров : 25,000 кадров/сек
Цветовое пространство : YUV
Субдискретизация насыщенности : 4:2:0
Битовая глубина : 8 бит
Тип развёртки : Прогрессивная
Бит/(Пиксели*Кадры) : 0.076
Размер потока : 894 Мбайт (87%)
Default : Да
Forced : Нет
Цветовой диапазон : Limited
Основные цвета : BT.709
Характеристики трансфера : BT.709
Коэффициенты матрицы : BT.709

Аудио
Идентификатор : 2
Формат : AC-3
Формат/Информация : Audio Coding 3
Идентификатор кодека : A_AC3
Продолжительность : 1 ч. 11 м.
Вид битрейта : Постоянный
Битрейт : 256 Кбит/сек
Каналы : 2 канала
Расположение каналов : Front: L R
Частота : 44,1 КГц
Частота кадров : 28,711 кадров/сек (1536 SPF)
Битовая глубина : 16 бит
Метод сжатия : С потерями
Размер потока : 131 Мбайт (13%)
ServiceKind/String : Complete Main
Default : Да
Forced : Нет

Информация о торренте:
Размер содержимого: 1.0 GB
Скачан: 489 раз
Статус: Проверен
Зарегистрирован на трекере: 2019-01-12 14:09
Скачать торрент


Поддержи раздачу — поставь лайк:
Писать комментарии на нашем торрент-трекере могут только зарегистрированные пользователи.
Зарегистрируйтесь или авторизируйтесь на сайте.