»
»

Скачать сериал Лапси (2 сезон 1-7 серии) (Артём Аксененко ) / [2019, Мистика, триллер, драма , WEBRip 1080р] - торрент

Скачать бесплатный торрент сериал. Сериал доступен на нашем торрент-трекере бесплатно, без регистрации и смс.

Статистика раздачи
222 [ 27.0 KB/s ] ↑ 15.6 GB ↓ 1 [ 0 b/s ]
Автор Сообщение
Lacky1907
2019-01-10 03:12
Лапси (2 сезон 1-7 серии)
Лапси
Перевод: Не требуется, субтитры: отсутствуют
Формат: WEBRip 1080р, MKV, H.264, AC3
Страна: Россия, Yellow, Black and White, Кинокомпания «Небо»
Режиссер: Артём Аксененко
Жанр: Мистика, триллер, драма
Всего серий: 8
Продолжительность: 7 х ~ 00:45:00
Год выпуска: 2019

В ролях: Мария Машкова, Даниил Воробьёв, Диана Пожарская, Антон Кузнецов, Денис Парамонов, Иван Верховых, Наталия Вдовина, Владимир Чуприков, Михаил Химичев, Максим Жегалин, Олег Дуленин, Ирина Чериченко, Алла Иванцова, Борис Хвошнянский, Максим Белбородов

Описание: В карельской деревне обнаружен штамм нетипичного для местности заболевания — лихорадки Западного Нила. Руководитель НИИ Вирусологии отправляет на разведку эпидемиологов-вирусологов Веру Бойко и Николая Романова. Их связывает непростое прошлое, и соглашаются на совместную командировку они с трудом. В поисках источника вируса Вера и Николай обнаруживают у себя симптомы смертельно опасной болезни. Когда на странном острове Сариола она вдруг отступает, трудности только начинаются. Учёным предстоит разгадать тайну этого места, постичь непростые правила выживания среди его жителей, разобраться в своих отношениях, которые закончились много лет назад, и найти способ вернуться домой, ведь при попытке сбежать симптомы лихорадки возвращаются.




Видео: 1920x1080 (16:9), 23.976 fps, AVC MPEG-4 (x264) High@L4. ~ 6241 kbps avg, 0.126 bit/pixel
Аудио: 48 kHz, AC3 Dolby Digital, 2/0 (L,R) ch, ~192 kbps

Имеется реклама


Внимание! Раздача ведётся путём добавления новых серий

[Внимание! Раздача ведётся путём добавления новых серий; при каждом добавлении создаётся новый торрент. Чтобы начать докачку новой серии, пользователям необходимо сделать следующее:
(1) остановить скачивание,
(2) удалить старый торрент у себя из клиента (старые серии удалять не надо),
(3) скачать новый торрент и запустить его у себя в клиенте вместо старого, при этом указать клиенту путь в старую папку куда и должно происходить скачивание новых серий.

Ваш клиент при этом должен произвести хеширование (проверку) старой папки (если не производит сам - помогите ему сделать это), и будет докачивать только те серии которых у вас ещё нет. Старые серии при этом не удаляются, а продолжают раздаваться!

Eсли вы уже удалили старые серии, то предотвратить повторную закачку старых серий можно, отжав галочку в соответствующих местах при запуске нового торрента. По возможности, желательно не удалять старые серии как можно дольше, чтобы релизёр не столько продолжал раздавать старые серии, а смог сконцентрироваться на новых

MediaInfo

Общее
Уникальный идентификатор : 221232690643195766111822656679127476278 (0xA66FDDC9AF3125E0B7341D16AD9AE836)
Полное имя : I:\Лапси.(2019).WEB-DL.1080p\01.Лапси. 2019.WEB-DL 1080p. Files-x.mkv
Формат : Matroska
Версия формата : Version 2
Размер файла : 2,25 Гбайт
Продолжительность : 48 м. 58 с.
Общий поток : 6564 Кбит/сек
Дата кодирования : UTC 2019-01-03 23:09:01
Программа кодирования : mkvmerge v7.8.0 ('River Man') 32bit built on Apr 3 2015 12:11:22
Библиотека кодирования : libebml v1.3.1 + libmatroska v1.4.2

Видео
Идентификатор : 1
Формат : AVC
Формат/Информация : Advanced Video Codec
Профиль формата : High@L4
Параметр CABAC формата : Да
Параметр ReFrames формата : 4 кадра
Идентификатор кодека : V_MPEG4/ISO/AVC
Продолжительность : 48 м. 58 с.
Битрейт : 6241 Кбит/сек
Ширина : 1920 пикселей
Высота : 1080 пикселей
Соотношение сторон : 16:9
Режим частоты кадров : Постоянный
Частота кадров : 23,976 (24000/1001) кадра/сек
Цветовое пространство : YUV
Субдискретизация насыщенности : 4:2:0
Битовая глубина : 8 бит
Тип развёртки : Прогрессивная
Бит/(Пиксели*Кадры) : 0.126
Размер потока : 2,14 Гбайт (95%)
Default : Да
Forced : Нет

Аудио
Идентификатор : 2
Формат : AC-3
Формат/Информация : Audio Coding 3
Параметр Endianness формата : Big
Идентификатор кодека : A_AC3
Продолжительность : 48 м. 58 с.
Вид битрейта : Постоянный
Битрейт : 192 Кбит/сек
Каналы : 2 канала
Расположение каналов : Front: L R
Частота : 48,0 КГц
Частота кадров : 31,250 кадров/сек (1536 spf)
Битовая глубина : 16 бит
Метод сжатия : С потерями
Размер потока : 67,3 Мбайт (3%)
ServiceKind/String : Complete Main
Default : Да
Forced : Нет


Информация о торренте:
Размер содержимого: 15.6 GB
Скачан: 83 раза
Статус: Обновляемая раздача
Зарегистрирован на трекере: 2019-02-14 11:39
Скачать торрент


Поддержи раздачу — поставь лайк:
E-mail:
* Это обновляемая раздача и мы можем вас информировать об обновлении торрента в ней.

Писать комментарии на нашем торрент-трекере могут только зарегистрированные пользователи.
Зарегистрируйтесь или авторизируйтесь на сайте.