»
»

Скачать сериал Лапси (2 сезон 1-8 серии из 8) (Артём Аксененко) / [2019, Мистика, триллер, драма, WEBRip 720p] - торрент

Скачать через торрент сериал вы можете, нажав на синюю кнопку. Сериал доступен на нашем торрент-трекере бесплатно, без регистрации и смс.

Статистика раздачи
582 [ 77.0 KB/s ] ↑ 8.6 GB ↓ 1 [ 0 b/s ]
Автор Сообщение
Lacky1907
2019-01-10 01:44
Лапси (2 сезон 1-8 серии)
Лапси
Перевод: Не требуется, Субтитры отсутствуют
Формат: WEBRip 720p, MKV, H.264, AC3
Страна: Россия, Yellow, Black and White, Кинокомпания «Небо»
Режиссер: Артём Аксененко
Жанр: Мистика, триллер, драма
Всего серий: 8
Продолжительность: 8 х ~ 00:45:00
Год выпуска: 2019

В ролях: Мария Машкова, Даниил Воробьёв, Диана Пожарская, Антон Кузнецов, Денис Парамонов, Иван Верховых, Наталия Вдовина, Владимир Чуприков, Михаил Химичев, Максим Жегалин, Олег Дуленин, Ирина Чериченко, Алла Иванцова, Борис Хвошнянский, Максим Белбородов

Описание: В карельской деревне обнаружен штамм нетипичного для местности заболевания — лихорадки Западного Нила. Руководитель НИИ Вирусологии отправляет на разведку эпидемиологов-вирусологов Веру Бойко и Николая Романова. Их связывает непростое прошлое, и соглашаются на совместную командировку они с трудом. В поисках источника вируса Вера и Николай обнаруживают у себя симптомы смертельно опасной болезни. Когда на странном острове Сариола она вдруг отступает, трудности только начинаются. Учёным предстоит разгадать тайну этого места, постичь непростые правила выживания среди его жителей, разобраться в своих отношениях, которые закончились много лет назад, и найти способ вернуться домой, ведь при попытке сбежать симптомы лихорадки возвращаются.



Видео: 1280x720 (16:9), 23.976 fps, AVC MPEG-4 (x264) High@L3.1 ~ 2904 kbps avg, 0.131 bit/pixel
Аудио: 48 kHz, AC3 Dolby Digital, 2/0 (L,R) ch, ~192 kbps

Имеется реклама


MediaInfo

Общее
Уникальный идентификатор : 222801666582941758176198031512262809000 (0xA79E0A462A79332DB8553D85764215A8)
Полное имя : I:\Лапси.(2019).WEB-DL.720p\01.Лапси. 2019.WEB-DL 720p. Files-x .mkv
Формат : Matroska
Версия формата : Version 2
Размер файла : 1,08 Гбайт
Продолжительность : 48 м. 58 с.
Общий поток : 3159 Кбит/сек
Дата кодирования : UTC 2019-01-04 11:04:49
Программа кодирования : mkvmerge v7.8.0 ('River Man') 32bit built on Apr 3 2015 12:11:22
Библиотека кодирования : libebml v1.3.1 + libmatroska v1.4.2

Видео
Идентификатор : 1
Формат : AVC
Формат/Информация : Advanced Video Codec
Профиль формата : High@L3.1
Параметр CABAC формата : Да
Параметр ReFrames формата : 4 кадра
Идентификатор кодека : V_MPEG4/ISO/AVC
Продолжительность : 48 м. 58 с.
Битрейт : 2904 Кбит/сек
Ширина : 1280 пикселей
Высота : 720 пикселей
Соотношение сторон : 16:9
Режим частоты кадров : Постоянный
Частота кадров : 23,976 (24000/1001) кадра/сек
Цветовое пространство : YUV
Субдискретизация насыщенности : 4:2:0
Битовая глубина : 8 бит
Тип развёртки : Прогрессивная
Бит/(Пиксели*Кадры) : 0.131
Размер потока : 1017 Мбайт (92%)
Default : Да
Forced : Нет

Аудио
Идентификатор : 2
Формат : AC-3
Формат/Информация : Audio Coding 3
Параметр Endianness формата : Big
Идентификатор кодека : A_AC3
Продолжительность : 48 м. 58 с.
Вид битрейта : Постоянный
Битрейт : 192 Кбит/сек
Каналы : 2 канала
Расположение каналов : Front: L R
Частота : 48,0 КГц
Частота кадров : 31,250 кадров/сек (1536 spf)
Битовая глубина : 16 бит
Метод сжатия : С потерями
Размер потока : 67,3 Мбайт (6%)
ServiceKind/String : Complete Main
Default : Да
Forced : Нет


Информация о торренте:
Размер содержимого: 8.6 GB
Скачан: 547 раз
Статус: Проверен
Зарегистрирован на трекере: 2019-02-22 14:05
Скачать торрент


Поддержи раздачу — поставь лайк:
Писать комментарии на нашем торрент-трекере могут только зарегистрированные пользователи.
Зарегистрируйтесь или авторизируйтесь на сайте.